  0
SECTION
  2
HEADER
  9
$ACADVER
  1
AC1014
  9
$ACADMAINTVER
 70
             0
  9
$DWGCODEPAGE
  3
ANSI_1252
  9
$INSBASE
 10
0.0
 20
0.0
 30
0.0
  9
$EXTMIN
 10
1.00000000000000E+20
 20
1.00000000000000E+20
 30
1.00000000000000E+20
  9
$EXTMAX
 10
-1.00000000000000E+20
 20
-1.00000000000000E+20
 30
-1.00000000000000E+20
  9
$LIMMIN
 10
0.0
 20
0.0
  9
$LIMMAX
 10
0.0
 20
0.0
  9
$ORTHOMODE
 70
             0
  9
$REGENMODE
 70
             1
  9
$FILLMODE
 70
             1
  9
$QTEXTMODE
 70
             0
  9
$MIRRTEXT
 70
             1
  9
$DRAGMODE
 70
             2
  9
$LTSCALE
 40
1.0
  9
$OSMODE
 70
             0
  9
$ATTMODE
 70
             1
  9
$TEXTSIZE
 40
0.2
  9
$TRACEWID
 40
0.05
  9
$TEXTSTYLE
  7
STANDARD
  9
$CLAYER
  8
0
  9
$CELTYPE
  6
CONTINUOUS
  9
$CECOLOR
 62
           256
  9
$CELTSCALE
 40
1.0
  9
$DELOBJ
 70
             1
  9
$DISPSILH
 70
             0
  9
$DIMSCALE
 40
1.0
  9
$DIMASZ
 40
0.18
  9
$DIMEXO
 40
0.0625
  9
$DIMDLI
 40
0.38
  9
$DIMRND
 40
0.0
  9
$DIMDLE
 40
0.0
  9
$DIMEXE
 40
0.18
  9
$DIMTP
 40
0.0
  9
$DIMTM
 40
0.0
  9
$DIMTXT
 40
0.18
  9
$DIMCEN
 40
0.09
  9
$DIMTSZ
 40
0.0
  9
$DIMTOL
 70
             0
  9
$DIMLIM
 70
             0
  9
$DIMTIH
 70
             1
  9
$DIMTOH
 70
             1
  9
$DIMSE1
 70
             0
  9
$DIMSE2
 70
             0
  9
$DIMTAD
 70
             0
  9
$DIMZIN
 70
             0
  9
$DIMBLK
  1

  9
$DIMASO
 70
             1
  9
$DIMSHO
 70
             1
  9
$DIMPOST
  1

  9
$DIMAPOST
  1

  9
$DIMALT
 70
             0
  9
$DIMALTD
 70
             2
  9
$DIMALTF
 40
25.4
  9
$DIMLFAC
 40
1.0
  9
$DIMTOFL
 70
             0
  9
$DIMTVP
 40
0.0
  9
$DIMTIX
 70
             0
  9
$DIMSOXD
 70
             0
  9
$DIMSAH
 70
             0
  9
$DIMBLK1
  1

  9
$DIMBLK2
  1

  9
$DIMSTYLE
  2
STANDARD
  9
$DIMCLRD
 70
             0
  9
$DIMCLRE
 70
             0
  9
$DIMCLRT
 70
             0
  9
$DIMTFAC
 40
1.0
  9
$DIMGAP
 40
0.09
  9
$DIMJUST
 70
             0
  9
$DIMSD1
 70
             0
  9
$DIMSD2
 70
             0
  9
$DIMTOLJ
 70
             1
  9
$DIMTZIN
 70
             0
  9
$DIMALTZ
 70
             0
  9
$DIMALTTZ
 70
             0
  9
$DIMFIT
 70
             3
  9
$DIMUPT
 70
             0
  9
$DIMUNIT
 70
             2
  9
$DIMDEC
 70
             4
  9
$DIMTDEC
 70
             4
  9
$DIMALTU
 70
             2
  9
$DIMALTTD
 70
             2
  9
$DIMTXSTY
  7
STANDARD
  9
$DIMAUNIT
 70
             0
  9
$LUNITS
 70
             2
  9
$LUPREC
 70
             4
  9
$SKETCHINC
 40
0.1
  9
$FILLETRAD
 40
0.0
  9
$AUNITS
 70
             0
  9
$AUPREC
 70
             0
  9
$MENU
  1
acad
  9
$ELEVATION
 40
0.0
  9
$PELEVATION
 40
0.0
  9
$THICKNESS
 40
0.0
  9
$LIMCHECK
 70
             0
  9
$BLIPMODE
 70
             1
  9
$CHAMFERA
 40
0.0
  9
$CHAMFERB
 40
0.0
  9
$CHAMFERC
 40
0.0
  9
$CHAMFERD
 40
0.0
  9
$SKPOLY
 70
             0
  9
$TDCREATE
 40
0.000000000
  9
$TDUPDATE
 40
0.000000000
  9
$TDINDWG
 40
0.0000000000
  9
$TDUSRTIMER
 40
0.0000000000
  9
$USRTIMER
 70
             1
  9
$ANGBASE
 50
0.0
  9
$ANGDIR
 70
             0
  9
$PDMODE
 70
             0
  9
$PDSIZE
 40
0.0
  9
$PLINEWID
 40
0.0
  9
$COORDS
 70
             0
  9
$SPLFRAME
 70
             0
  9
$SPLINETYPE
 70
             6
  9
$SPLINESEGS
 70
             8
  9
$ATTDIA
 70
             0
  9
$ATTREQ
 70
             1
  9
$HANDLING
 70
             1
  9
$HANDSEED
  5
141
  9
$SURFTAB1
 70
             6
  9
$SURFTAB2
 70
             6
  9
$SURFTYPE
 70
             6
  9
$SURFU
 70
             6
  9
$SURFV
 70
             6
  9
$UCSNAME
  2

  9
$UCSORG
 10
0.0
 20
0.0
 30
0.0
  9
$UCSXDIR
 10
1.0
 20
0.0
 30
0.0
  9
$UCSYDIR
 10
0.0
 20
1.0
 30
0.0
  9
$PUCSNAME
  2

  9
$PUCSORG
 10
0.0
 20
0.0
 30
0.0
  9
$PUCSXDIR
 10
1.0
 20
0.0
 30
0.0
  9
$PUCSYDIR
 10
0.0
 20
1.0
 30
0.0
  9
$USERI1
 70
             0
  9
$USERI2
 70
             0
  9
$USERI3
 70
             0
  9
$USERI4
 70
             0
  9
$USERI5
 70
             0
  9
$USERR1
 40
11.0
  9
$USERR2
 40
0.0
  9
$USERR3
 40
0.0
  9
$USERR4
 40
0.0
  9
$USERR5
 40
0.0
  9
$WORLDVIEW
 70
             1
  9
$SHADEDGE
 70
             3
  9
$SHADEDIF
 70
            70
  9
$TILEMODE
 70
             1
  9
$MAXACTVP
 70
            16
  9
$PINSBASE
 10
0.0
 20
0.0
 30
0.0
  9
$PLIMCHECK
 70
             0
  9
$PEXTMIN
 10
1.00000000000000E+20
 20
1.00000000000000E+20
 30
1.00000000000000E+20
  9
$PEXTMAX
 10
-1.00000000000000E+20
 20
-1.00000000000000E+20
 30
-1.00000000000000E+20
  9
$PLIMMIN
 10
0.0
 20
0.0
  9
$PLIMMAX
 10
12.0
 20
9.0
  9
$UNITMODE
 70
             0
  9
$VISRETAIN
 70
             0
  9
$PLINEGEN
 70
             1
  9
$PSLTSCALE
 70
             0
  9
$TREEDEPTH
 70
          3020
  9
$PICKSTYLE
 70
             1
  9
$CMLSTYLE
  2
STANDARD
  9
$CMLJUST
 70
             0
  9
$CMLSCALE
 40
1.0
  9
$PROXYGRAPHICS
 70
             0
  9
$MEASUREMENT
 70
             1
  0
ENDSEC
  0
SECTION
  2
CLASSES
  0
CLASS
  1
LWPOLYLINE
  2
AcDbPolyline
  3
"AutoCAD"
 90
        0
280
             0
281
             1
  0
CLASS
  1
IMAGE
  2
AcDbRasterImage
  3
ISM
 90
      127
280
             0
281
             1
  0
CLASS
  1
OLE2FRAME
  2
AcDbOle2Frame
  3
""
 90
        0
280
             0
281
             1
  0
CLASS
  1
HATCH
  2
AcDbHatch
  3
"ACAD_SEDONA"
 90
        0
280
             0
281
             1
  0
CLASS
  1
DICTIONARYVAR
  2
AcDbDictionaryVar
  3
"AutoCAD"
 90
        0
280
             0
281
             0
  0
CLASS
  1
RASTERVARIABLES
  2
AcDbRasterVariables
  3
ISM
 90
        0
280
             0
281
             0
  0
CLASS
  1
IMAGEDEF
  2
AcDbRasterImageDef
  3
ISM
 90
        0
280
             0
281
             0
  0
CLASS
  1
IMAGEDEF_REACTOR
  2
AcDbRasterImageDefReactor
  3
ISM
 90
        1
280
             0
281
             0
  0
CLASS
  1
IDBUFFER
  2
AcDbIdBuffer
  3
"Acad"
 90
        0
280
             0
281
             0
  0
CLASS
  1
SPATIAL_FILTER
  2
AcDbSpatialFilter
  3
"Acad"
 90
        0
280
             0
281
             0
  0
CLASS
  1
XRECORD
  2
AcDbXrecord
  3
"<Built In>"
 90
        0
280
             0
281
             0
  0
CLASS
  1
SORTENTSTABLE
  2
AcDbSortentsTable
  3
"AutoCAD"
 90
        0
280
             0
281
             0
  0
CLASS
  1
LAYER_INDEX
  2
AcDbLayerIndex
  3
"Acad"
 90
        0
280
             0
281
             0
  0
CLASS
  1
SPATIAL_INDEX
  2
AcDbSpatialIndex
  3
"Acad"
 90
        0
280
             0
281
             0
  0
CLASS
  1
OBJECT_PTR
  2
CAseDLPNTableRecord
  3
"ASE-LPNTableRecord"
 90
        1
280
             0
281
             0
  0
CLASS
  1
LAYOUT
  2
AcDbLayout
  3
"AutoCAD 2000"
 90
        1
280
             0
281
             0
  0
CLASS
  1
PLOTSETTINGS
  2
AcDbPlotSettings
  3
"AutoCAD 2000"
 90
        1
280
             0
281
             0
  0
CLASS
  1
ACDBDICTIONARYWDFLT
  2
AcDbDictionaryWithDefault
  3
"AutoCAD 2000"
 90
        1
280
             0
281
             0
  0
CLASS
  1
ACDBPLACEHOLDER
  2
AcDbPlaceHolder
  3
"AutoCAD 2000"
 90
        1
280
             0
281
             0
  0
CLASS
  1
VBA_PROJECT
  2
AcDbVbaProject
  3
"acadvba"
 90
        1
280
             0
281
             0
  0
CLASS
  1
WIPEOUT
  2
AcDbWipeout
  3
WipeOut|AutoCAD Express Tool|expresstools@autodesk.com
 90
      127
280
             0
281
             1
  0
CLASS
  1
WIPEOUTVARIABLES
  2
AcDbWipeoutVariables
  3
WipeOut|AutoCAD Express Tool|expresstools@autodesk.com
 90
        0
280
             0
281
             0
  0
CLASS
  1
RTEXT
  2
RText
  3
RText|AutoCAD Express Tool|expresstools@autodesk.com
 90
        0
280
             0
281
             1
  0
CLASS
  1
ARCALIGNEDTEXT
  2
AcDbArcAlignedText
  3
ATEXT|AutoCAD Express Tool|expresstools@autodesk.com
 90
        0
280
             0
281
             1
  0
ENDSEC
  0
SECTION
  2
TABLES
  0
TABLE
  2
VPORT
  5
7
100
AcDbSymbolTable
 70
             1
  0
VPORT
  5
15
100
AcDbSymbolTableRecord
100
AcDbViewportTableRecord
  2
*ACTIVE
 70
             0
 10
0.0
 20
0.0
 11
1.0
 21
1.0
 12
91.96963650320832
 22
1.75078267970965
 13
0.0
 23
0.0
 14
1.0
 24
1.0
 15
0.0
 25
0.0
 16
0.0
 26
0.0
 36
1.0
 17
0.0
 27
0.0
 37
0.0
 40
178.17496640844951
 41
1.60267857142857
 42
50.0
 43
0.0
 44
0.0
 50
0.0
 51
0.0
 71
             0
 72
           100
 73
             1
 74
             1
 75
             0
 76
             0
 77
             0
 78
             0
  0
ENDTAB
  0
TABLE
  2
LTYPE
  5
4
100
AcDbSymbolTable
 70
            10
  0
LTYPE
  5
11
100
AcDbSymbolTableRecord
100
AcDbLinetypeTableRecord
  2
BYBLOCK
 70
            64
  3

 72
            65
 73
             0
 40
0.0
  0
LTYPE
  5
12
100
AcDbSymbolTableRecord
100
AcDbLinetypeTableRecord
  2
BYLAYER
 70
            64
  3

 72
            65
 73
             0
 40
0.0
  0
LTYPE
  5
13
100
AcDbSymbolTableRecord
100
AcDbLinetypeTableRecord
  2
CONTINUOUS
 70
            64
  3
Solid line
 72
            65
 73
             0
 40
0.0
  0
LTYPE
  5
1D
100
AcDbSymbolTableRecord
100
AcDbLinetypeTableRecord
  2
DASHED
 70
            64
  3
Dashed
 72
            65
 73
             2
 40
15.0
 49
12.0
 74
             0
 49
-3.0
 74
             0
  0
LTYPE
  5
1E
100
AcDbSymbolTableRecord
100
AcDbLinetypeTableRecord
  2
DOTTED
 70
            64
  3
Dotted
 72
            65
 73
             2
 40
3.5
 49
0.5
 74
             0
 49
-3.0
 74
             0
  0
LTYPE
  5
1F
100
AcDbSymbolTableRecord
100
AcDbLinetypeTableRecord
  2
DOT_CENTER
 70
            64
  3
Dot_Center
 72
            65
 73
             4
 40
2.0
 49
1.25
 74
             0
 49
-0.25
 74
             0
 49
0.25
 74
             0
 49
-0.25
 74
             0
  0
LTYPE
  5
20
100
AcDbSymbolTableRecord
100
AcDbLinetypeTableRecord
  2
LONG_DASHED
 70
            64
  3
Long_Dashed
 72
            65
 73
             2
 40
2.0
 49
1.5
 74
             0
 49
-0.5
 74
             0
  0
LTYPE
  5
21
100
AcDbSymbolTableRecord
100
AcDbLinetypeTableRecord
  2
DASH_CENTER
 70
            64
  3
Dash_Center
 72
            65
 73
             4
 40
36.0
 49
24.0
 74
             0
 49
-3.0
 74
             0
 49
6.0
 74
             0
 49
-3.0
 74
             0
  0
LTYPE
  5
22
100
AcDbSymbolTableRecord
100
AcDbLinetypeTableRecord
  2
PHANTOM
 70
            64
  3
Phantom
 72
            65
 73
             6
 40
2.5
 49
1.25
 74
             0
 49
-0.25
 74
             0
 49
0.25
 74
             0
 49
-0.25
 74
             0
 49
0.25
 74
             0
 49
-0.25
 74
             0
  0
LTYPE
  5
23
100
AcDbSymbolTableRecord
100
AcDbLinetypeTableRecord
  2
CENTER_DASH_DASH
 70
            64
  3
Center_Dash_Dash
 72
            65
 73
             6
 40
22.0
 49
12.0
 74
             0
 49
-3.0
 74
             0
 49
0.5
 74
             0
 49
-3.0
 74
             0
 49
0.5
 74
             0
 49
-3.0
 74
             0
  0
ENDTAB
  0
TABLE
  2
LAYER
  5
2
100
AcDbSymbolTable
 70
             2
  0
LAYER
  5
14
100
AcDbSymbolTableRecord
100
AcDbLayerTableRecord
  2
0
 70
             0
 62
             7
  6
CONTINUOUS
  0
LAYER
  5
24
100
AcDbSymbolTableRecord
100
AcDbLayerTableRecord
  2
1
 70
             0
 62
             7
  6
CONTINUOUS
  0
ENDTAB
  0
TABLE
  2
STYLE
  5
3
100
AcDbSymbolTable
 70
             2
  0
STYLE
  5
17
100
AcDbSymbolTableRecord
100
AcDbTextStyleTableRecord
  2
STANDARD
 70
             0
 40
0.0
 41
1.0
 50
0.0
 71
             0
 42
0.0
  3
txt
  4

  0
STYLE
  5
E7
100
AcDbSymbolTableRecord
100
AcDbTextStyleTableRecord
  2
CONVERTER_1
 70
             0
 40
0.0
 41
0.9
 50
0.0
 71
             0
 42
0.0
  3
txt.shx
  4

  0
ENDTAB
  0
TABLE
  2
VIEW
  5
5
100
AcDbSymbolTable
 70
             0
  0
ENDTAB
  0
TABLE
  2
UCS
  5
6
100
AcDbSymbolTable
 70
             0
  0
ENDTAB
  0
TABLE
  2
APPID
  5
8
100
AcDbSymbolTable
 70
             1
  0
APPID
  5
16
100
AcDbSymbolTableRecord
100
AcDbRegAppTableRecord
  2
ACAD
 70
             0
  0
ENDTAB
  0
TABLE
  2
DIMSTYLE
  5
9
100
AcDbSymbolTable
 70
             6
  0
DIMSTYLE
105
18
100
AcDbSymbolTableRecord
100
AcDbDimStyleTableRecord
  2
STANDARD
 70
             0
  3

  4

  5

  6

  7

 40
1.0
 41
0.18
 42
0.0625
 43
0.38
 44
0.18
 45
0.0
 46
0.0
 47
0.0
 48
0.0
 71
             0
 72
             0
 73
             1
 74
             1
 75
             0
 76
             0
 77
             0
 78
             0
140
0.18
141
0.09
142
0.0
143
25.4
144
1.0
145
0.0
146
1.0
147
0.09
170
             0
171
             2
172
             0
173
             0
174
             0
175
             0
176
             0
177
             0
178
             0
270
             2
271
             4
272
             4
273
             2
274
             2
275
             0
280
             0
281
             0
282
             0
283
             1
284
             0
285
             0
286
             0
287
             0
288
             0
340
17
  0
DIMSTYLE
105
EA
100
AcDbSymbolTableRecord
100
AcDbDimStyleTableRecord
  2
ME10_DIM_0
 70
             0
  3

  4

  5

  6

  7

 40
1.0
 41
2.0
 42
0.0
 43
0.38
 44
2.0
 45
0.0
 46
0.0
 47
0.0
 48
0.0
 71
             0
 72
             0
 73
             0
 74
             0
 75
             0
 76
             0
 77
             0
 78
             8
140
2.0
141
0.09
142
0.0
143
25.4
144
1.0
145
0.0
146
1.0
147
0.625
170
             0
171
             2
172
             0
173
             1
174
             0
175
             0
176
             3
177
             3
178
             3
270
             2
271
             2
272
             4
273
             2
274
             2
275
             0
280
             0
281
             0
282
             0
283
             1
284
             0
285
             0
286
             0
287
             0
288
             0
340
17
  0
DIMSTYLE
105
F6
100
AcDbSymbolTableRecord
100
AcDbDimStyleTableRecord
  2
ME10_DIM_1
 70
             0
  3

  4

  5

  6

  7

 40
1.0
 41
2.0
 42
0.0
 43
0.38
 44
2.0
 45
0.0
 46
0.0
 47
0.0
 48
0.0
 71
             0
 72
             0
 73
             0
 74
             0
 75
             0
 76
             0
 77
             0
 78
             8
140
2.0
141
0.09
142
0.0
143
25.4
144
1.0
145
0.0
146
1.0
147
0.625
170
             0
171
             2
172
             0
173
             1
174
             0
175
             0
176
             3
177
             3
178
             3
270
             2
271
             2
272
             4
273
             2
274
             2
275
             0
280
             0
281
             0
282
             0
283
             1
284
             0
285
             0
286
             0
287
             0
288
             0
340
17
  0
DIMSTYLE
105
102
100
AcDbSymbolTableRecord
100
AcDbDimStyleTableRecord
  2
ME10_DIM_2
 70
             0
  3

  4

  5

  6

  7

 40
1.0
 41
2.0
 42
0.0
 43
0.38
 44
2.0
 45
0.0
 46
0.0
 47
0.0
 48
0.0
 71
             0
 72
             0
 73
             0
 74
             0
 75
             0
 76
             0
 77
             0
 78
             8
140
2.0
141
0.09
142
0.0
143
25.4
144
1.0
145
0.0
146
1.0
147
0.625
170
             0
171
             2
172
             0
173
             1
174
             0
175
             0
176
             3
177
             3
178
             3
270
             2
271
             2
272
             4
273
             2
274
             2
275
             0
280
             0
281
             0
282
             0
283
             1
284
             0
285
             0
286
             0
287
             0
288
             0
340
17
  0
DIMSTYLE
105
10E
100
AcDbSymbolTableRecord
100
AcDbDimStyleTableRecord
  2
ME10_DIM_3
 70
             0
  3

  4

  5

  6

  7

 40
1.0
 41
2.0
 42
0.0
 43
0.38
 44
2.0
 45
0.0
 46
0.0
 47
0.0
 48
0.0
 71
             0
 72
             0
 73
             0
 74
             0
 75
             0
 76
             0
 77
             0
 78
             8
140
2.0
141
0.09
142
0.0
143
25.4
144
1.0
145
0.0
146
1.0
147
0.625
170
             0
171
             2
172
             0
173
             1
174
             0
175
             0
176
             3
177
             3
178
             3
270
             2
271
             2
272
             4
273
             2
274
             2
275
             0
280
             0
281
             0
282
             0
283
             1
284
             0
285
             0
286
             0
287
             0
288
             0
340
17
  0
DIMSTYLE
105
11A
100
AcDbSymbolTableRecord
100
AcDbDimStyleTableRecord
  2
ME10_DIM_4
 70
             0
  3

  4

  5

  6

  7

 40
1.0
 41
2.0
 42
0.0
 43
0.38
 44
2.0
 45
0.0
 46
0.0
 47
0.0
 48
0.0
 71
             0
 72
             0
 73
             0
 74
             0
 75
             0
 76
             0
 77
             0
 78
             8
140
2.0
141
0.09
142
0.0
143
25.4
144
1.0
145
0.0
146
1.0
147
0.625
170
             0
171
             2
172
             0
173
             1
174
             0
175
             0
176
             3
177
             3
178
             3
270
             2
271
             2
272
             4
273
             2
274
             2
275
             0
280
             0
281
             0
282
             0
283
             1
284
             0
285
             0
286
             0
287
             0
288
             0
340
17
  0
ENDTAB
  0
TABLE
  2
BLOCK_RECORD
  5
1
100
AcDbSymbolTable
 70
            10
  0
BLOCK_RECORD
  5
A
100
AcDbSymbolTableRecord
100
AcDbBlockTableRecord
  2
*MODEL_SPACE
  0
BLOCK_RECORD
  5
B
100
AcDbSymbolTableRecord
100
AcDbBlockTableRecord
  2
*PAPER_SPACE
  0
BLOCK_RECORD
  5
DF
100
AcDbSymbolTableRecord
100
AcDbBlockTableRecord
  2
*D0
  0
BLOCK_RECORD
  5
EC
100
AcDbSymbolTableRecord
100
AcDbBlockTableRecord
  2
*D1
  0
BLOCK_RECORD
  5
F8
100
AcDbSymbolTableRecord
100
AcDbBlockTableRecord
  2
*D2
  0
BLOCK_RECORD
  5
104
100
AcDbSymbolTableRecord
100
AcDbBlockTableRecord
  2
*D3
  0
BLOCK_RECORD
  5
110
100
AcDbSymbolTableRecord
100
AcDbBlockTableRecord
  2
*D4
  0
BLOCK_RECORD
  5
11C
100
AcDbSymbolTableRecord
100
AcDbBlockTableRecord
  2
*D5
  0
BLOCK_RECORD
  5
123
100
AcDbSymbolTableRecord
100
AcDbBlockTableRecord
  2
*D6
  0
BLOCK_RECORD
  5
12A
100
AcDbSymbolTableRecord
100
AcDbBlockTableRecord
  2
*D7
  0
BLOCK_RECORD
  5
131
100
AcDbSymbolTableRecord
100
AcDbBlockTableRecord
  2
*D8
  0
BLOCK_RECORD
  5
139
100
AcDbSymbolTableRecord
100
AcDbBlockTableRecord
  2
*D9
  0
ENDTAB
  0
ENDSEC
  0
SECTION
  2
BLOCKS
  0
BLOCK
  5
D
100
AcDbEntity
  8
0
100
AcDbBlockBegin
  2
*MODEL_SPACE
 70
             0
 10
0.0
 20
0.0
 30
0.0
  3
*MODEL_SPACE
  1

  0
ENDBLK
  5
E
100
AcDbEntity
  8
0
100
AcDbBlockEnd
  0
BLOCK
  5
F
100
AcDbEntity
 67
             1
  8
0
100
AcDbBlockBegin
  2
*PAPER_SPACE
 70
             0
 10
0.0
 20
0.0
 30
0.0
  3
*PAPER_SPACE
  1

  0
ENDBLK
  5
10
100
AcDbEntity
 67
             1
  8
0
100
AcDbBlockEnd
  0
BLOCK
  5
E0
100
AcDbEntity
  8
0
100
AcDbBlockBegin
  2
*D0
 70
             1
 10
0.0
 20
0.0
 30
0.0
  3
*D0
  1

  0
LINE
  5
E1
100
AcDbEntity
  8
0
  6
CONTINUOUS
 62
             3
100
AcDbLine
 10
46.0889908133968
 20
27.0
 11
46.0889908133968
 21
23.0
  0
LINE
  5
E2
100
AcDbEntity
  8
0
  6
CONTINUOUS
 62
             3
100
AcDbLine
 10
46.0889908133968
 20
36.0
 11
46.0889908133968
 21
40.0
  0
LINE
  5
E3
100
AcDbEntity
  8
0
  6
CONTINUOUS
 62
             3
100
AcDbLine
 10
31.24619148673463
 20
27.0
 11
48.0889908133968
 21
27.0
  0
LINE
  5
E4
100
AcDbEntity
  8
0
  6
CONTINUOUS
 62
             3
100
AcDbLine
 10
26.0
 20
36.0
 11
48.0889908133968
 21
36.0
  0
SOLID
  5
E5
100
AcDbEntity
  8
0
 62
             3
100
AcDbTrace
 10
46.35229580857159
 20
25.0
 11
45.82568581822201
 21
25.0
 12
46.0889908133968
 22
27.0
 13
46.0889908133968
 23
27.0
  0
SOLID
  5
E6
100
AcDbEntity
  8
0
 62
             3
100
AcDbTrace
 10
45.82568581822201
 20
38.0
 11
46.35229580857159
 21
38.0
 12
46.0889908133968
 22
36.0
 13
46.0889908133968
 23
36.0
  0
MTEXT
  5
E8
100
AcDbEntity
  8
0
 62
             3
100
AcDbMText
 10
47.0889908133968
 20
30.8693418985939
 30
0.0
 40
2.0
 41
0.0
 71
             7
 72
             1
  1
9
  7
CONVERTER_1
 11
0.0
 21
1.0
 31
0.0
  0
ENDBLK
  5
E9
100
AcDbEntity
  8
0
100
AcDbBlockEnd
  0
BLOCK
  5
ED
100
AcDbEntity
  8
0
100
AcDbBlockBegin
  2
*D1
 70
             1
 10
0.0
 20
0.0
 30
0.0
  3
*D1
  1

  0
LINE
  5
EE
100
AcDbEntity
  8
0
  6
CONTINUOUS
 62
             3
100
AcDbLine
 10
0.0
 20
-41.4984346405807
 11
105.61622223150701
 21
-41.4984346405807
  0
LINE
  5
EF
100
AcDbEntity
  8
0
  6
CONTINUOUS
 62
             3
100
AcDbLine
 10
113.816222231507
 20
-41.4984346405807
 11
201.0
 21
-41.4984346405807
  0
LINE
  5
F0
100
AcDbEntity
  8
0
  6
CONTINUOUS
 62
             3
100
AcDbLine
 10
0.0
 20
0.0
 11
0.0
 21
-43.4984346405807
  0
LINE
  5
F1
100
AcDbEntity
  8
0
  6
CONTINUOUS
 62
             3
100
AcDbLine
 10
201.0
 20
0.0
 11
201.0
 21
-43.4984346405807
  0
SOLID
  5
F2
100
AcDbEntity
  8
0
 62
             3
100
AcDbTrace
 10
2.0
 20
-41.23512964540591
 11
2.0
 21
-41.76173963575549
 12
0.0
 22
-41.4984346405807
 13
0.0
 23
-41.4984346405807
  0
SOLID
  5
F3
100
AcDbEntity
  8
0
 62
             3
100
AcDbTrace
 10
199.0
 20
-41.76173963575549
 11
199.0
 21
-41.23512964540591
 12
201.0
 22
-41.4984346405807
 13
201.0
 23
-41.4984346405807
  0
MTEXT
  5
F4
100
AcDbEntity
  8
0
 62
             3
100
AcDbMText
 10
107.61622223150701
 20
-42.4984346405807
 30
0.0
 40
2.0
 41
0.0
 71
             7
 72
             1
  1
201
  7
CONVERTER_1
 11
0.99999999999706
 21
0.00000242406841
 31
0.0
  0
ENDBLK
  5
F5
100
AcDbEntity
  8
0
100
AcDbBlockEnd
  0
BLOCK
  5
F9
100
AcDbEntity
  8
0
100
AcDbBlockBegin
  2
*D2
 70
             1
 10
0.0
 20
0.0
 30
0.0
  3
*D2
  1

  0
LINE
  5
FA
100
AcDbEntity
  8
0
  6
CONTINUOUS
 62
             3
100
AcDbLine
 10
-33.8821101415235
 20
29.0
 11
-33.8821101415235
 21
33.0
  0
LINE
  5
FB
100
AcDbEntity
  8
0
  6
CONTINUOUS
 62
             3
100
AcDbLine
 10
-33.8821101415235
 20
33.0
 11
-33.8821101415235
 21
35.0
  0
LINE
  5
FC
100
AcDbEntity
  8
0
  6
CONTINUOUS
 62
             3
100
AcDbLine
 10
-33.8821101415235
 20
35.0
 11
-33.8821101415235
 21
36.2766500193257
  0
LINE
  5
FD
100
AcDbEntity
  8
0
  6
CONTINUOUS
 62
             3
100
AcDbLine
 10
-26.0
 20
33.0
 11
-35.8821101415235
 21
33.0
  0
LINE
  5
FE
100
AcDbEntity
  8
0
  6
CONTINUOUS
 62
             3
100
AcDbLine
 10
-20.0
 20
35.0
 11
-35.8821101415235
 21
35.0
  0
SOLID
  5
FF
100
AcDbEntity
  8
0
 62
             3
100
AcDbTrace
 10
-33.61880514634871
 20
31.0
 11
-34.14541513669829
 21
31.0
 12
-33.8821101415235
 22
33.0
 13
-33.8821101415235
 23
33.0
  0
MTEXT
  5
100
100
AcDbEntity
  8
0
 62
             3
100
AcDbMText
 10
-32.8821101415235
 20
38.2766500193257
 30
0.0
 40
2.0
 41
0.0
 71
             7
 72
             1
  1
2
  7
CONVERTER_1
 11
0.0
 21
1.0
 31
0.0
  0
ENDBLK
  5
101
100
AcDbEntity
  8
0
100
AcDbBlockEnd
  0
BLOCK
  5
105
100
AcDbEntity
  8
0
100
AcDbBlockBegin
  2
*D3
 70
             1
 10
0.0
 20
0.0
 30
0.0
  3
*D3
  1

  0
LINE
  5
106
100
AcDbEntity
  8
0
  6
CONTINUOUS
 62
             3
100
AcDbLine
 10
6.0
 20
45.0
 11
9.8
 21
45.0
  0
LINE
  5
107
100
AcDbEntity
  8
0
  6
CONTINUOUS
 62
             3
100
AcDbLine
 10
16.2
 20
45.0
 11
20.0
 21
45.0
  0
LINE
  5
108
100
AcDbEntity
  8
0
  6
CONTINUOUS
 62
             3
100
AcDbLine
 10
6.0
 20
35.0
 11
6.0
 21
47.0
  0
LINE
  5
109
100
AcDbEntity
  8
0
  6
CONTINUOUS
 62
             3
100
AcDbLine
 10
20.0
 20
35.0
 11
20.0
 21
47.0
  0
SOLID
  5
10A
100
AcDbEntity
  8
0
 62
             3
100
AcDbTrace
 10
8.0
 20
45.26330499517479
 11
8.0
 21
44.73669500482521
 12
6.0
 22
45.0
 13
6.0
 23
45.0
  0
SOLID
  5
10B
100
AcDbEntity
  8
0
 62
             3
100
AcDbTrace
 10
18.0
 20
44.73669500482521
 11
18.0
 21
45.26330499517479
 12
20.0
 22
45.0
 13
20.0
 23
45.0
  0
MTEXT
  5
10C
100
AcDbEntity
  8
0
 62
             3
100
AcDbMText
 10
11.8
 20
44.0
 30
0.0
 40
2.0
 41
0.0
 71
             7
 72
             1
  1
14
  7
CONVERTER_1
 11
0.99999999999706
 21
0.00000242406841
 31
0.0
  0
ENDBLK
  5
10D
100
AcDbEntity
  8
0
100
AcDbBlockEnd
  0
BLOCK
  5
111
100
AcDbEntity
  8
0
100
AcDbBlockBegin
  2
*D4
 70
             1
 10
0.0
 20
0.0
 30
0.0
  3
*D4
  1

  0
LINE
  5
112
100
AcDbEntity
  8
0
  6
CONTINUOUS
 62
             3
100
AcDbLine
 10
-20.0
 20
45.0
 11
-16.2
 21
45.0
  0
LINE
  5
113
100
AcDbEntity
  8
0
  6
CONTINUOUS
 62
             3
100
AcDbLine
 10
-9.8
 20
45.0
 11
-6.00000000000001
 21
45.0
  0
LINE
  5
114
100
AcDbEntity
  8
0
  6
CONTINUOUS
 62
             3
100
AcDbLine
 10
-20.0
 20
35.0
 11
-20.0
 21
47.0
  0
LINE
  5
115
100
AcDbEntity
  8
0
  6
CONTINUOUS
 62
             3
100
AcDbLine
 10
-6.00000000000001
 20
35.0
 11
-6.00000000000001
 21
47.0
  0
SOLID
  5
116
100
AcDbEntity
  8
0
 62
             3
100
AcDbTrace
 10
-18.0
 20
45.26330499517479
 11
-18.0
 21
44.73669500482521
 12
-20.0
 22
45.0
 13
-20.0
 23
45.0
  0
SOLID
  5
117
100
AcDbEntity
  8
0
 62
             3
100
AcDbTrace
 10
-8.00000000000001
 20
44.73669500482521
 11
-8.00000000000001
 21
45.26330499517479
 12
-6.00000000000001
 22
45.0
 13
-6.00000000000001
 23
45.0
  0
MTEXT
  5
118
100
AcDbEntity
  8
0
 62
             3
100
AcDbMText
 10
-14.2
 20
44.0
 30
0.0
 40
2.0
 41
0.0
 71
             7
 72
             1
  1
14
  7
CONVERTER_1
 11
0.99999999999706
 21
0.00000242406841
 31
0.0
  0
ENDBLK
  5
119
100
AcDbEntity
  8
0
100
AcDbBlockEnd
  0
BLOCK
  5
11D
100
AcDbEntity
  8
0
100
AcDbBlockBegin
  2
*D5
 70
             1
 10
0.0
 20
0.0
 30
0.0
  3
*D5
  1

  0
LINE
  5
11E
100
AcDbEntity
  8
0
  6
CONTINUOUS
 62
             3
100
AcDbLine
 10
201.00000000000003
 20
0.0
 11
213.62771387588825
 21
-8.53590156717849
  0
SOLID
  5
11F
100
AcDbEntity
  8
0
 62
             3
100
AcDbTrace
 10
211.62275062293219
 20
-7.49843308455026
 11
211.9176639983705
 21
-7.06214856394064
 12
213.42716228152079
 22
-8.40033556643706
 13
213.42716228152079
 23
-8.40033556643706
  0
MTEXT
  5
120
100
AcDbEntity
  8
0
 62
             3
100
AcDbMText
 10
215.35428936459226
 20
-10.91004079683763
 30
0.0
 40
2.0
 41
0.0
 71
             7
 72
             1
  1
\C3;R\C3;15
  7
CONVERTER_1
 11
0.82847748543472
 21
-0.5600223710958
 31
0.0
  0
ENDBLK
  5
121
100
AcDbEntity
  8
0
100
AcDbBlockEnd
  0
BLOCK
  5
124
100
AcDbEntity
  8
0
100
AcDbBlockBegin
  2
*D6
 70
             1
 10
0.0
 20
0.0
 30
0.0
  3
*D6
  1

  0
LINE
  5
125
100
AcDbEntity
  8
0
  6
CONTINUOUS
 62
             3
100
AcDbLine
 10
35.50475846759075
 20
10.41211439420654
 11
31.14577194630015
 21
14.82110934852513
  0
SOLID
  5
126
100
AcDbEntity
  8
0
 62
             3
100
AcDbTrace
 10
31.80220314474792
 20
13.78263565979324
 11
32.17669036899713
 21
14.15287531300466
 12
33.39557144115982
 22
12.54549904952198
 13
33.39557144115982
 23
12.54549904952198
  0
MTEXT
  5
127
100
AcDbEntity
  8
0
 62
             3
100
AcDbMText
 10
27.03182199188642
 20
17.55990758362374
 30
0.0
 40
2.0
 41
0.0
 71
             7
 72
             1
  1
\C3;R\C3;3
  7
CONVERTER_1
 11
0.70306234214365
 21
-0.71112821843848
 31
0.0
  0
ENDBLK
  5
128
100
AcDbEntity
  8
0
100
AcDbBlockEnd
  0
BLOCK
  5
12B
100
AcDbEntity
  8
0
100
AcDbBlockBegin
  2
*D7
 70
             1
 10
0.0
 20
0.0
 30
0.0
  3
*D7
  1

  0
LINE
  5
12C
100
AcDbEntity
  8
0
  6
CONTINUOUS
 62
             3
100
AcDbLine
 10
108.91772165292228
 20
4.61278878426499
 11
114.93258450757713
 21
5.7312859158799
  0
SOLID
  5
12D
100
AcDbEntity
  8
0
 62
             3
100
AcDbTrace
 10
113.0144300624266
 20
5.10677567174193
 11
112.91815444515053
 21
5.62451024413796
 12
114.93258450757713
 22
5.7312859158799
 13
114.93258450757713
 23
5.7312859158799
  0
MTEXT
  5
12E
100
AcDbEntity
  8
0
 62
             3
100
AcDbMText
 10
104.34211587772393
 20
2.74478669915603
 30
0.0
 40
2.0
 41
0.0
 71
             7
 72
             1
  1
\C3;R\C3;4
  7
CONVERTER_1
 11
0.98314612689428
 21
0.18282147896997
 31
0.0
  0
ENDBLK
  5
12F
100
AcDbEntity
  8
0
100
AcDbBlockEnd
  0
BLOCK
  5
132
100
AcDbEntity
  8
0
100
AcDbBlockBegin
  2
*D8
 70
             1
 10
0.0
 20
0.0
 30
0.0
  3
*D8
  1

  0
LINE
  5
133
100
AcDbEntity
  8
0
  6
CONTINUOUS
 62
             3
100
AcDbLine
 10
201.0
 20
0.0
 11
201.60411904295572
 21
0.66384741949597
  0
LINE
  5
134
100
AcDbEntity
  8
0
  6
CONTINUOUS
 62
             3
100
AcDbLine
 10
207.5269743858843
 20
7.17228690886221
 11
209.74967266568999
 21
9.6147401547456
  0
SOLID
  5
135
100
AcDbEntity
  8
0
 62
             3
100
AcDbTrace
 10
208.88188175986366
 20
9.05236264430521
 11
209.27136008448707
 21
8.69792687214821
 12
207.73051743514614
 22
7.39595396518892
 13
207.73051743514614
 23
7.39595396518892
  0
MTEXT
  5
136
100
AcDbEntity
  8
0
 62
             3
100
AcDbMText
 10
204.20133725157493
 20
2.0320789703735
 30
0.0
 40
2.0
 41
0.0
 71
             7
 72
             1
  1
\C3;R\C3;10
  7
CONVERTER_1
 11
0.67305174351462
 21
0.73959539651889
 31
0.0
  0
ENDBLK
  5
137
100
AcDbEntity
  8
0
100
AcDbBlockEnd
  0
BLOCK
  5
13A
100
AcDbEntity
  8
0
100
AcDbBlockBegin
  2
*D9
 70
             1
 10
0.0
 20
0.0
 30
0.0
  3
*D9
  1

  0
LINE
  5
13B
100
AcDbEntity
  8
0
  6
CONTINUOUS
 62
             3
100
AcDbLine
 10
0.0
 20
0.0
 11
27.07582690231219
 21
-15.64536561661295
  0
SOLID
  5
13C
100
AcDbEntity
  8
0
 62
             3
100
AcDbTrace
 10
23.24604014787807
 20
-13.73648233587206
 11
23.50951095512223
 21
-13.28052047818427
 12
25.10946262938905
 22
-14.5091311408821
 13
25.10946262938905
 23
-14.5091311408821
  0
MTEXT
  5
13D
100
AcDbEntity
  8
0
 62
             3
100
AcDbMText
 10
28.9652402028719
 20
-17.89207818827583
 30
0.0
 40
2.0
 41
0.0
 71
             7
 72
             1
  1
\C3;R\C3;29
  7
CONVERTER_1
 11
0.86584353894445
 21
-0.50031486692697
 31
0.0
  0
ENDBLK
  5
13E
100
AcDbEntity
  8
0
100
AcDbBlockEnd
  0
ENDSEC
  0
SECTION
  2
ENTITIES
  0
DIMENSION
  5
11B
100
AcDbEntity
  8
1
100
AcDbDimension
  2
*D4
 10
-20.0
 20
45.0
 11
-13.0
 21
45.0
 31
0.0
 70
             1
 53
0.00013888888889
  1
<>
  3
ME10_DIM_4
100
AcDbAlignedDimension
 13
-6.00000000000001
 23
35.0
 14
-20.0
 24
35.0
  0
DIMENSION
  5
10F
100
AcDbEntity
  8
1
100
AcDbDimension
  2
*D3
 10
6.0
 20
45.0
 11
13.0
 21
45.0
 31
0.0
 70
             1
 53
0.00013888888889
  1
<>
  3
ME10_DIM_3
100
AcDbAlignedDimension
 13
20.0
 23
35.0
 14
6.0
 24
35.0
  0
DIMENSION
  5
103
100
AcDbEntity
  8
1
100
AcDbDimension
  2
*D2
 10
-33.8821101415235
 20
35.0
 11
-33.8821101415235
 21
38.8766500193257
 31
0.0
 53
0.00013888888889
  1
<>
  3
ME10_DIM_2
100
AcDbAlignedDimension
 13
-26.0
 23
33.0
 14
-20.0
 24
35.0
100
AcDbRotatedDimension
  0
DIMENSION
  5
F7
100
AcDbEntity
  8
1
100
AcDbDimension
  2
*D1
 10
0.0
 20
-41.4984346405807
 11
109.716222231507
 21
-41.4984346405807
 31
0.0
 53
0.00013888888889
  1
<>
  3
ME10_DIM_1
100
AcDbAlignedDimension
 13
201.0
 23
0.0
 14
0.0
 24
0.0
100
AcDbRotatedDimension
  0
DIMENSION
  5
EB
100
AcDbEntity
  8
1
100
AcDbDimension
  2
*D0
 10
46.0889908133968
 20
27.0
 11
46.0889908133968
 21
31.4693418985939
 31
0.0
 53
90.0
  1
<>
  3
ME10_DIM_0
100
AcDbAlignedDimension
 13
26.0
 23
36.0
 14
31.24619148673463
 24
27.0
 50
90.0
100
AcDbRotatedDimension
  0
LWPOLYLINE
  5
DE
100
AcDbEntity
  8
1
  6
CONTINUOUS
 62
             7
100
AcDbPolyline
 90
        2
 70
             0
 43
0.01
 10
-21.0
 20
36.0
 42
0.4142135623731
 10
-20.0
 20
35.0
 42
0.4142135623731
  0
LWPOLYLINE
  5
DD
100
AcDbEntity
  8
1
  6
CONTINUOUS
 62
             7
100
AcDbPolyline
 90
        2
 70
             0
 43
0.01
 10
-6.00000000000001
 20
35.0
 42
0.4142135623731
 10
-5.00000000000001
 20
36.0
 42
0.4142135623731
  0
LWPOLYLINE
  5
DC
100
AcDbEntity
  8
1
  6
CONTINUOUS
 62
             7
100
AcDbPolyline
 90
        2
 70
             0
 43
0.01
 10
5.0
 20
36.0
 42
0.4142135623731
 10
6.0
 20
35.0
 42
0.4142135623731
  0
LWPOLYLINE
  5
DB
100
AcDbEntity
  8
1
  6
CONTINUOUS
 62
             7
100
AcDbPolyline
 90
        2
 70
             0
 43
0.01
 10
20.0
 20
35.0
 42
0.4142135623731
 10
21.0
 20
36.0
 42
0.4142135623731
  0
LWPOLYLINE
  5
DA
100
AcDbEntity
  8
1
  6
CONTINUOUS
 62
             7
100
AcDbPolyline
 90
        2
 70
             0
 43
0.01
 10
-20.0
 20
-35.0
 42
0.4142135623731
 10
-21.0
 20
-36.0
 42
0.4142135623731
  0
LWPOLYLINE
  5
D9
100
AcDbEntity
  8
1
  6
CONTINUOUS
 62
             7
100
AcDbPolyline
 90
        2
 70
             0
 43
0.01
 10
-5.00000000000001
 20
-36.0
 42
0.4142135623731
 10
-6.00000000000001
 20
-35.0
 42
0.4142135623731
  0
LWPOLYLINE
  5
D8
100
AcDbEntity
  8
1
  6
CONTINUOUS
 62
             7
100
AcDbPolyline
 90
        2
 70
             0
 43
0.01
 10
6.0
 20
-35.0
 42
0.4142135623731
 10
5.0
 20
-36.0
 42
0.4142135623731
  0
LWPOLYLINE
  5
D7
100
AcDbEntity
  8
1
  6
CONTINUOUS
 62
             7
100
AcDbPolyline
 90
        2
 70
             0
 43
0.01
 10
21.0
 20
-36.0
 42
0.4142135623731
 10
20.0
 20
-35.0
 42
0.4142135623731
  0
LWPOLYLINE
  5
D6
100
AcDbEntity
  8
1
  6
CONTINUOUS
 62
             7
100
AcDbPolyline
 90
        2
 70
             0
 43
0.01
 10
115.0
 20
5.0
 42
0.4142135623731
 10
111.0
 20
9.0
 42
0.4142135623731
  0
LWPOLYLINE
  5
D5
100
AcDbEntity
  8
1
  6
CONTINUOUS
 62
             7
100
AcDbPolyline
 90
        2
 70
             0
 43
0.01
 10
111.0
 20
-9.0
 42
0.4142135623731
 10
115.0
 20
-5.0
 42
0.4142135623731
  0
LWPOLYLINE
  5
D4
100
AcDbEntity
  8
1
  6
CONTINUOUS
 62
             7
100
AcDbPolyline
 90
        2
 70
             0
 43
0.01
 10
123.0
 20
9.0
 42
0.4142135623731
 10
119.0
 20
5.0
 42
0.4142135623731
  0
LWPOLYLINE
  5
D3
100
AcDbEntity
  8
1
  6
CONTINUOUS
 62
             7
100
AcDbPolyline
 90
        2
 70
             0
 43
0.01
 10
119.0
 20
-5.0
 42
0.4142135623731
 10
123.0
 20
-9.0
 42
0.4142135623731
  0
LWPOLYLINE
  5
D2
100
AcDbEntity
  8
1
  6
CONTINUOUS
 62
             7
100
AcDbPolyline
 90
        2
 70
             0
 43
0.01
 10
36.38176619472741
 20
13.28106149140829
 42
0.59696055785683
 10
32.62599426751582
 20
9.56788890278438
 42
0.59696055785683
  0
LWPOLYLINE
  5
D1
100
AcDbEntity
  8
1
  6
CONTINUOUS
 62
             7
100
AcDbPolyline
 90
        2
 70
             0
 43
0.01
 10
32.62599426751582
 20
-9.56788890278438
 42
0.59696055785683
 10
36.38176619472741
 20
-13.28106149140829
 42
0.59696055785683
  0
LWPOLYLINE
  5
D0
100
AcDbEntity
  8
1
  6
CONTINUOUS
 62
             7
100
AcDbPolyline
 90
        2
 70
             1
 43
0.01
 10
-23.0
 20
0.0
 42
1.0
 10
23.0
 20
0.0
 42
1.0
  0
LWPOLYLINE
  5
CF
100
AcDbEntity
  8
1
  6
CONTINUOUS
 62
             7
100
AcDbPolyline
 90
        2
 70
             1
 43
0.01
 10
-29.0
 20
0.0
 42
1.0
 10
29.0
 20
0.0
 42
1.0
  0
LWPOLYLINE
  5
CE
100
AcDbEntity
  8
1
  6
CONTINUOUS
 62
             7
100
AcDbPolyline
 90
        2
 70
             1
 43
0.01
 10
191.0
 20
0.0
 42
1.0
 10
211.0
 20
0.0
 42
1.0
  0
LWPOLYLINE
  5
CD
100
AcDbEntity
  8
1
  6
CONTINUOUS
 62
             7
100
AcDbPolyline
 90
        2
 70
             0
 43
0.01
 10
-26.0
 20
21.90890230020664
 42
0.36514837167011
 10
-26.0
 20
-21.90890230020664
 42
0.36514837167011
  0
LWPOLYLINE
  5
CC
100
AcDbEntity
  8
1
  6
CONTINUOUS
 62
             7
100
AcDbPolyline
 90
        2
 70
             0
 43
0.01
 10
166.0
 20
-9.0
 42
1.0
 10
166.0
 20
9.0
 42
1.0
  0
LWPOLYLINE
  5
CB
100
AcDbEntity
  8
1
  6
CONTINUOUS
 62
             7
100
AcDbPolyline
 90
        2
 70
             0
 43
0.01
 10
31.24619148673463
 20
27.0
 42
0.24119780124839
 10
65.03068528119221
 20
11.00000000000001
 42
0.24119780124839
  0
LWPOLYLINE
  5
CA
100
AcDbEntity
  8
1
  6
CONTINUOUS
 62
             7
100
AcDbPolyline
 90
        2
 70
             0
 43
0.01
 10
166.0000000000002
 20
11.00000000000001
 42
0.05695747690427
 10
197.6156325543916
 20
14.61321514907334
 42
0.05695747690427
  0
LWPOLYLINE
  5
C9
100
AcDbEntity
  8
1
  6
CONTINUOUS
 62
             7
100
AcDbPolyline
 90
        2
 70
             0
 43
0.01
 10
193.5
 20
12.99038105676658
 42
13.48816272994636
 10
197.6156325543916
 20
14.61321514907334
 42
13.48816272994636
  0
LWPOLYLINE
  5
C8
100
AcDbEntity
  8
1
  6
CONTINUOUS
 62
             7
100
AcDbPolyline
 90
        2
 70
             0
 43
0.01
 10
197.6156325543916
 20
14.61321514907334
 42
0.07413908180243
 10
193.5
 20
12.99038105676658
 42
0.07413908180243
  0
LWPOLYLINE
  5
C7
100
AcDbEntity
  8
1
  6
CONTINUOUS
 62
             7
100
AcDbPolyline
 90
        2
 70
             0
 43
0.01
 10
36.38176619472741
 20
13.28106149140829
 42
0.07430342731286
 10
65.03068528119221
 20
9.0
 42
0.07430342731286
  0
LWPOLYLINE
  5
C6
100
AcDbEntity
  8
1
  6
CONTINUOUS
 62
             7
100
AcDbPolyline
 90
        2
 70
             0
 43
0.01
 10
197.6156325543916
 20
-14.61321514907332
 42
0.05695747690427
 10
166.00000000000011
 20
-11.0
 42
0.05695747690427
  0
LWPOLYLINE
  5
C5
100
AcDbEntity
  8
1
  6
CONTINUOUS
 62
             7
100
AcDbPolyline
 90
        2
 70
             0
 43
0.01
 10
197.6156325543916
 20
-14.61321514907332
 42
0.05695747690427
 10
166.00000000000011
 20
-11.0
 42
0.05695747690427
  0
LWPOLYLINE
  5
C4
100
AcDbEntity
  8
1
  6
CONTINUOUS
 62
             7
100
AcDbPolyline
 90
        2
 70
             0
 43
0.01
 10
27.41540915397503
 20
-33.0
 42
0.02023471309917
 10
26.0
 20
-36.0
 42
0.02023471309917
  0
LWPOLYLINE
  5
C3
100
AcDbEntity
  8
1
  6
CONTINUOUS
 62
             7
100
AcDbPolyline
 90
        2
 70
             0
 43
0.01
 10
65.03068528119221
 20
-9.0
 42
0.07430342731286
 10
36.38176619472741
 20
-13.28106149140829
 42
0.07430342731286
  0
LWPOLYLINE
  5
C2
100
AcDbEntity
  8
1
  6
CONTINUOUS
 62
             7
100
AcDbPolyline
 90
        2
 70
             0
 43
0.01
 10
65.03068528119221
 20
-9.0
 42
0.07430342731286
 10
36.38176619472741
 20
-13.28106149140829
 42
0.07430342731286
  0
LWPOLYLINE
  5
C1
100
AcDbEntity
  8
1
  6
CONTINUOUS
 62
             7
100
AcDbPolyline
 90
        2
 70
             0
 43
0.01
 10
32.62599426751582
 20
-9.56788890278438
 42
0.14360594551681
 10
32.62599426751582
 20
9.56788890278438
 42
0.14360594551681
  0
LWPOLYLINE
  5
C0
100
AcDbEntity
  8
1
  6
CONTINUOUS
 62
             7
100
AcDbPolyline
 90
        2
 70
             0
 43
0.01
 10
26.0
 20
36.0
 42
0.02023471309917
 10
27.41540915397503
 20
33.0
 42
0.02023471309917
  0
LWPOLYLINE
  5
BF
100
AcDbEntity
  8
1
  6
CONTINUOUS
 62
             7
100
AcDbPolyline
 90
        2
 70
             0
 43
0.01
 10
27.41540915397503
 20
33.0
 42
0.04348837220491
 10
31.24619148673463
 20
27.0
 42
0.04348837220491
  0
LWPOLYLINE
  5
BE
100
AcDbEntity
  8
1
  6
CONTINUOUS
 62
             7
100
AcDbPolyline
 90
        2
 70
             0
 43
0.01
 10
65.03068528119221
 20
-11.0
 42
0.24119780124839
 10
31.24619148673462
 20
-27.0
 42
0.24119780124839
  0
LWPOLYLINE
  5
BD
100
AcDbEntity
  8
1
  6
CONTINUOUS
 62
             7
100
AcDbPolyline
 90
        2
 70
             0
 43
0.01
 10
31.24619148673462
 20
-27.0
 42
0.04348837220491
 10
27.41540915397503
 20
-33.0
 42
0.04348837220491
  0
LWPOLYLINE
  5
BC
100
AcDbEntity
  8
1
  6
CONTINUOUS
 62
             7
100
AcDbPolyline
 90
        2
 70
             0
 43
0.01
 10
-26.0
 20
36.0
 10
-26.0
 20
33.0
  0
LWPOLYLINE
  5
BB
100
AcDbEntity
  8
1
  6
CONTINUOUS
 62
             7
100
AcDbPolyline
 90
        2
 70
             0
 43
0.01
 10
-26.0
 20
-21.90890230020664
 10
-26.0
 20
-27.0
  0
LWPOLYLINE
  5
BA
100
AcDbEntity
  8
1
  6
CONTINUOUS
 62
             7
100
AcDbPolyline
 90
        2
 70
             0
 43
0.01
 10
-26.0
 20
36.0
 10
-21.0
 20
36.0
  0
LWPOLYLINE
  5
B9
100
AcDbEntity
  8
1
  6
CONTINUOUS
 62
             7
100
AcDbPolyline
 90
        2
 70
             0
 43
0.01
 10
-20.0
 20
35.0
 10
-6.00000000000001
 20
35.0
  0
LWPOLYLINE
  5
B8
100
AcDbEntity
  8
1
  6
CONTINUOUS
 62
             7
100
AcDbPolyline
 90
        2
 70
             0
 43
0.01
 10
6.0
 20
35.0
 10
20.0
 20
35.0
  0
LWPOLYLINE
  5
B7
100
AcDbEntity
  8
1
  6
CONTINUOUS
 62
             7
100
AcDbPolyline
 90
        2
 70
             0
 43
0.01
 10
21.0
 20
36.0
 10
26.0
 20
36.0
  0
LWPOLYLINE
  5
B6
100
AcDbEntity
  8
1
  6
CONTINUOUS
 62
             7
100
AcDbPolyline
 90
        2
 70
             0
 43
0.01
 10
-5.00000000000001
 20
36.0
 10
5.0
 20
36.0
  0
LWPOLYLINE
  5
B5
100
AcDbEntity
  8
1
  6
CONTINUOUS
 62
             7
100
AcDbPolyline
 90
        2
 70
             0
 43
0.01
 10
-21.0
 20
-36.0
 10
-26.0
 20
-36.0
  0
LWPOLYLINE
  5
B4
100
AcDbEntity
  8
1
  6
CONTINUOUS
 62
             7
100
AcDbPolyline
 90
        2
 70
             0
 43
0.01
 10
-6.00000000000001
 20
-35.0
 10
-20.0
 20
-35.0
  0
LWPOLYLINE
  5
B3
100
AcDbEntity
  8
1
  6
CONTINUOUS
 62
             7
100
AcDbPolyline
 90
        2
 70
             0
 43
0.01
 10
20.0
 20
-35.0
 10
6.0
 20
-35.0
  0
LWPOLYLINE
  5
B2
100
AcDbEntity
  8
1
  6
CONTINUOUS
 62
             7
100
AcDbPolyline
 90
        2
 70
             0
 43
0.01
 10
26.0
 20
-36.0
 10
21.0
 20
-36.0
  0
LWPOLYLINE
  5
B1
100
AcDbEntity
  8
1
  6
CONTINUOUS
 62
             7
100
AcDbPolyline
 90
        2
 70
             0
 43
0.01
 10
5.0
 20
-36.0
 10
-5.00000000000001
 20
-36.0
  0
LWPOLYLINE
  5
B0
100
AcDbEntity
  8
1
  6
CONTINUOUS
 62
             7
100
AcDbPolyline
 90
        2
 70
             0
 43
0.01
 10
111.0
 20
9.0
 10
110.0
 20
9.0
  0
LWPOLYLINE
  5
AF
100
AcDbEntity
  8
1
  6
CONTINUOUS
 62
             7
100
AcDbPolyline
 90
        2
 70
             0
 43
0.01
 10
115.0
 20
5.0
 10
115.0
 20
0.0
  0
LWPOLYLINE
  5
AE
100
AcDbEntity
  8
1
  6
CONTINUOUS
 62
             7
100
AcDbPolyline
 90
        2
 70
             0
 43
0.01
 10
65.03068528119221
 20
-9.0
 10
110.0
 20
-9.0
  0
LWPOLYLINE
  5
AD
100
AcDbEntity
  8
1
  6
CONTINUOUS
 62
             7
100
AcDbPolyline
 90
        2
 70
             0
 43
0.01
 10
115.0
 20
0.0
 10
115.0
 20
-5.0
  0
LWPOLYLINE
  5
AC
100
AcDbEntity
  8
1
  6
CONTINUOUS
 62
             7
100
AcDbPolyline
 90
        2
 70
             0
 43
0.01
 10
119.0
 20
0.0
 10
119.0
 20
5.0
  0
LWPOLYLINE
  5
AB
100
AcDbEntity
  8
1
  6
CONTINUOUS
 62
             7
100
AcDbPolyline
 90
        2
 70
             0
 43
0.01
 10
123.0
 20
-9.0
 10
124.0
 20
-9.0
  0
LWPOLYLINE
  5
AA
100
AcDbEntity
  8
1
  6
CONTINUOUS
 62
             7
100
AcDbPolyline
 90
        2
 70
             0
 43
0.01
 10
119.0
 20
-5.0
 10
119.0
 20
0.0
  0
LWPOLYLINE
  5
A9
100
AcDbEntity
  8
1
  6
CONTINUOUS
 62
             7
100
AcDbPolyline
 90
        2
 70
             0
 43
0.01
 10
166.0
 20
9.0
 10
124.0
 20
9.0
  0
LWPOLYLINE
  5
A8
100
AcDbEntity
  8
1
  6
CONTINUOUS
 62
             7
100
AcDbPolyline
 90
        2
 70
             0
 43
0.01
 10
166.0000000000002
 20
11.00000000000001
 10
159.84603731343299
 20
11.00000000000001
  0
LWPOLYLINE
  5
A7
100
AcDbEntity
  8
1
  6
CONTINUOUS
 62
             7
100
AcDbPolyline
 90
        2
 70
             0
 43
0.01
 10
159.84603731343299
 20
11.00000000000001
 10
124.0
 20
11.00000000000001
  0
LWPOLYLINE
  5
A6
100
AcDbEntity
  8
1
  6
CONTINUOUS
 62
             7
100
AcDbPolyline
 90
        2
 70
             0
 43
0.01
 10
65.03068528119221
 20
-11.0
 10
110.0
 20
-11.0
  0
LWPOLYLINE
  5
A5
100
AcDbEntity
  8
1
  6
CONTINUOUS
 62
             7
100
AcDbPolyline
 90
        2
 70
             0
 43
0.01
 10
159.8460373134331
 20
-11.0
 10
166.00000000000011
 20
-11.0
  0
LWPOLYLINE
  5
A4
100
AcDbEntity
  8
1
  6
CONTINUOUS
 62
             7
100
AcDbPolyline
 90
        2
 70
             0
 43
0.01
 10
124.0
 20
11.00000000000001
 10
124.0
 20
9.0
  0
LWPOLYLINE
  5
A3
100
AcDbEntity
  8
1
  6
CONTINUOUS
 62
             7
100
AcDbPolyline
 90
        2
 70
             0
 43
0.01
 10
124.0
 20
11.00000000000001
 10
110.0
 20
11.00000000000001
  0
LWPOLYLINE
  5
A2
100
AcDbEntity
  8
1
  6
CONTINUOUS
 62
             7
100
AcDbPolyline
 90
        2
 70
             0
 43
0.01
 10
124.0
 20
9.0
 10
123.0
 20
9.0
  0
LWPOLYLINE
  5
A1
100
AcDbEntity
  8
1
  6
CONTINUOUS
 62
             7
100
AcDbPolyline
 90
        2
 70
             0
 43
0.01
 10
110.0
 20
11.00000000000001
 10
110.0
 20
9.0
  0
LWPOLYLINE
  5
A0
100
AcDbEntity
  8
1
  6
CONTINUOUS
 62
             7
100
AcDbPolyline
 90
        2
 70
             0
 43
0.01
 10
110.0
 20
11.00000000000001
 10
65.03068528119221
 20
11.00000000000001
  0
LWPOLYLINE
  5
9F
100
AcDbEntity
  8
1
  6
CONTINUOUS
 62
             7
100
AcDbPolyline
 90
        2
 70
             0
 43
0.01
 10
110.0
 20
9.0
 10
65.03068528119221
 20
9.0
  0
LWPOLYLINE
  5
9E
100
AcDbEntity
  8
1
  6
CONTINUOUS
 62
             7
100
AcDbPolyline
 90
        2
 70
             0
 43
0.01
 10
124.0
 20
-9.0
 10
124.0
 20
-11.0
  0
LWPOLYLINE
  5
9D
100
AcDbEntity
  8
1
  6
CONTINUOUS
 62
             7
100
AcDbPolyline
 90
        2
 70
             0
 43
0.01
 10
124.0
 20
-9.0
 10
166.0
 20
-9.0
  0
LWPOLYLINE
  5
9C
100
AcDbEntity
  8
1
  6
CONTINUOUS
 62
             7
100
AcDbPolyline
 90
        2
 70
             0
 43
0.01
 10
124.0
 20
-11.0
 10
159.8460373134331
 20
-11.0
  0
LWPOLYLINE
  5
9B
100
AcDbEntity
  8
1
  6
CONTINUOUS
 62
             7
100
AcDbPolyline
 90
        2
 70
             0
 43
0.01
 10
110.0
 20
-9.0
 10
110.0
 20
-11.0
  0
LWPOLYLINE
  5
9A
100
AcDbEntity
  8
1
  6
CONTINUOUS
 62
             7
100
AcDbPolyline
 90
        2
 70
             0
 43
0.01
 10
110.0
 20
-9.0
 10
111.0
 20
-9.0
  0
LWPOLYLINE
  5
99
100
AcDbEntity
  8
1
  6
CONTINUOUS
 62
             7
100
AcDbPolyline
 90
        2
 70
             0
 43
0.01
 10
110.0
 20
-11.0
 10
124.0
 20
-11.0
  0
LWPOLYLINE
  5
98
100
AcDbEntity
  8
1
  6
DASHED
 62
             7
100
AcDbPolyline
 90
        2
 70
             0
 43
0.01
 10
-26.0
 20
33.0
 10
27.41540915397503
 20
33.0
  0
LWPOLYLINE
  5
97
100
AcDbEntity
  8
1
  6
CONTINUOUS
 62
             7
100
AcDbPolyline
 90
        2
 70
             0
 43
0.01
 10
-26.0
 20
33.0
 10
-26.0
 20
27.0
  0
LWPOLYLINE
  5
96
100
AcDbEntity
  8
1
  6
DASHED
 62
             7
100
AcDbPolyline
 90
        2
 70
             0
 43
0.01
 10
31.24619148673463
 20
27.0
 10
-26.0
 20
27.0
  0
LWPOLYLINE
  5
95
100
AcDbEntity
  8
1
  6
CONTINUOUS
 62
             7
100
AcDbPolyline
 90
        2
 70
             0
 43
0.01
 10
-26.0
 20
27.0
 10
-26.0
 20
21.90890230020664
  0
LWPOLYLINE
  5
94
100
AcDbEntity
  8
1
  6
DASHED
 62
             7
100
AcDbPolyline
 90
        2
 70
             0
 43
0.01
 10
31.24619148673462
 20
-27.0
 10
-26.0
 20
-27.0
  0
LWPOLYLINE
  5
93
100
AcDbEntity
  8
1
  6
CONTINUOUS
 62
             7
100
AcDbPolyline
 90
        2
 70
             0
 43
0.01
 10
-26.0
 20
-27.0
 10
-26.0
 20
-33.0
  0
LWPOLYLINE
  5
92
100
AcDbEntity
  8
1
  6
DASHED
 62
             7
100
AcDbPolyline
 90
        2
 70
             0
 43
0.01
 10
-26.0
 20
-33.0
 10
27.41540915397503
 20
-33.0
  0
LWPOLYLINE
  5
91
100
AcDbEntity
  8
1
  6
CONTINUOUS
 62
             7
100
AcDbPolyline
 90
        2
 70
             0
 43
0.01
 10
-26.0
 20
-33.0
 10
-26.0
 20
-36.0
  0
POINT
  5
90
100
AcDbEntity
  8
1
 62
           250
100
AcDbPoint
 10
-26.0
 20
0.0
  0
POINT
  5
8F
100
AcDbEntity
  8
1
 62
           250
100
AcDbPoint
 10
26.0
 20
0.0
  0
POINT
  5
8E
100
AcDbEntity
  8
1
 62
             3
100
AcDbPoint
 10
201.0
 20
0.0
  0
POINT
  5
8D
100
AcDbEntity
  8
1
 62
           250
100
AcDbPoint
 10
119.0
 20
0.0
  0
POINT
  5
8C
100
AcDbEntity
  8
1
 62
           250
100
AcDbPoint
 10
115.0
 20
0.0
  0
POINT
  5
8B
100
AcDbEntity
  8
1
 62
           250
100
AcDbPoint
 10
0.0
 20
35.0
  0
POINT
  5
8A
100
AcDbEntity
  8
1
 62
           250
100
AcDbPoint
 10
0.0
 20
26.0
  0
POINT
  5
89
100
AcDbEntity
  8
1
 62
           250
100
AcDbPoint
 10
0.0
 20
36.0
  0
POINT
  5
88
100
AcDbEntity
  8
1
 62
           250
100
AcDbPoint
 10
0.0
 20
-36.0
  0
POINT
  5
87
100
AcDbEntity
  8
1
 62
           250
100
AcDbPoint
 10
0.0
 20
-35.0
  0
POINT
  5
86
100
AcDbEntity
  8
1
 62
           250
100
AcDbPoint
 10
0.0
 20
-11.0
  0
POINT
  5
85
100
AcDbEntity
  8
1
 62
           250
100
AcDbPoint
 10
0.0
 20
-9.0
  0
POINT
  5
84
100
AcDbEntity
  8
1
 62
           250
100
AcDbPoint
 10
-26.0
 20
36.0
  0
POINT
  5
83
100
AcDbEntity
  8
1
 62
           250
100
AcDbPoint
 10
-26.0
 20
-21.90890230020664
  0
POINT
  5
82
100
AcDbEntity
  8
1
 62
           250
100
AcDbPoint
 10
-26.0
 20
-36.0
  0
POINT
  5
81
100
AcDbEntity
  8
1
 62
           250
100
AcDbPoint
 10
26.0
 20
36.0
  0
POINT
  5
80
100
AcDbEntity
  8
1
 62
           250
100
AcDbPoint
 10
26.0
 20
-36.0
  0
POINT
  5
7F
100
AcDbEntity
  8
1
 62
           250
100
AcDbPoint
 10
-21.0
 20
35.0
  0
POINT
  5
7E
100
AcDbEntity
  8
1
 62
           250
100
AcDbPoint
 10
-5.00000000000001
 20
35.0
  0
POINT
  5
7D
100
AcDbEntity
  8
1
 62
           250
100
AcDbPoint
 10
5.0
 20
35.0
  0
POINT
  5
7C
100
AcDbEntity
  8
1
 62
           250
100
AcDbPoint
 10
21.0
 20
35.0
  0
POINT
  5
7B
100
AcDbEntity
  8
1
 62
           250
100
AcDbPoint
 10
21.0
 20
36.0
  0
POINT
  5
7A
100
AcDbEntity
  8
1
 62
           250
100
AcDbPoint
 10
5.0
 20
36.0
  0
POINT
  5
79
100
AcDbEntity
  8
1
 62
           250
100
AcDbPoint
 10
-5.00000000000001
 20
36.0
  0
POINT
  5
78
100
AcDbEntity
  8
1
 62
           250
100
AcDbPoint
 10
-21.0
 20
36.0
  0
POINT
  5
77
100
AcDbEntity
  8
1
 62
           250
100
AcDbPoint
 10
0.0
 20
-35.0
  0
POINT
  5
76
100
AcDbEntity
  8
1
 62
           250
100
AcDbPoint
 10
0.0
 20
-36.0
  0
POINT
  5
75
100
AcDbEntity
  8
1
 62
           250
100
AcDbPoint
 10
-26.0
 20
-36.0
  0
POINT
  5
74
100
AcDbEntity
  8
1
 62
           250
100
AcDbPoint
 10
26.0
 20
-36.0
  0
POINT
  5
73
100
AcDbEntity
  8
1
 62
           250
100
AcDbPoint
 10
-21.0
 20
-35.0
  0
POINT
  5
72
100
AcDbEntity
  8
1
 62
           250
100
AcDbPoint
 10
-5.00000000000001
 20
-35.0
  0
POINT
  5
71
100
AcDbEntity
  8
1
 62
           250
100
AcDbPoint
 10
5.0
 20
-35.0
  0
POINT
  5
70
100
AcDbEntity
  8
1
 62
           250
100
AcDbPoint
 10
21.0
 20
-35.0
  0
POINT
  5
6F
100
AcDbEntity
  8
1
 62
           250
100
AcDbPoint
 10
21.0
 20
-36.0
  0
POINT
  5
6E
100
AcDbEntity
  8
1
 62
           250
100
AcDbPoint
 10
5.0
 20
-36.0
  0
POINT
  5
6D
100
AcDbEntity
  8
1
 62
           250
100
AcDbPoint
 10
-5.00000000000001
 20
-36.0
  0
POINT
  5
6C
100
AcDbEntity
  8
1
 62
           250
100
AcDbPoint
 10
-21.0
 20
-36.0
  0
POINT
  5
6B
100
AcDbEntity
  8
1
 62
           250
100
AcDbPoint
 10
115.0
 20
9.0
  0
POINT
  5
6A
100
AcDbEntity
  8
1
 62
           250
100
AcDbPoint
 10
65.03068528119221
 20
9.0
  0
POINT
  5
69
100
AcDbEntity
  8
1
 62
           250
100
AcDbPoint
 10
119.0
 20
0.0
  0
POINT
  5
68
100
AcDbEntity
  8
1
 62
           250
100
AcDbPoint
 10
115.0
 20
0.0
  0
POINT
  5
67
100
AcDbEntity
  8
1
 62
           250
100
AcDbPoint
 10
115.0
 20
-9.0
  0
POINT
  5
66
100
AcDbEntity
  8
1
 62
           250
100
AcDbPoint
 10
65.03068528119221
 20
-9.0
  0
POINT
  5
65
100
AcDbEntity
  8
1
 62
           250
100
AcDbPoint
 10
115.0
 20
0.0
  0
POINT
  5
64
100
AcDbEntity
  8
1
 62
           250
100
AcDbPoint
 10
119.0
 20
0.0
  0
POINT
  5
63
100
AcDbEntity
  8
1
 62
           250
100
AcDbPoint
 10
119.0
 20
9.0
  0
POINT
  5
62
100
AcDbEntity
  8
1
 62
           250
100
AcDbPoint
 10
168.96931471880779
 20
9.0
  0
POINT
  5
61
100
AcDbEntity
  8
1
 62
           250
100
AcDbPoint
 10
115.0
 20
0.0
  0
POINT
  5
60
100
AcDbEntity
  8
1
 62
           250
100
AcDbPoint
 10
119.0
 20
0.0
  0
POINT
  5
5F
100
AcDbEntity
  8
1
 62
           250
100
AcDbPoint
 10
119.0
 20
-9.0
  0
POINT
  5
5E
100
AcDbEntity
  8
1
 62
           250
100
AcDbPoint
 10
168.96931471880779
 20
-9.0
  0
POINT
  5
5D
100
AcDbEntity
  8
1
 62
           250
100
AcDbPoint
 10
166.0
 20
0.0
  0
POINT
  5
5C
100
AcDbEntity
  8
1
 62
           250
100
AcDbPoint
 10
166.0
 20
-9.0
  0
POINT
  5
5B
100
AcDbEntity
  8
1
 62
           250
100
AcDbPoint
 10
166.0
 20
9.0
  0
POINT
  5
5A
100
AcDbEntity
  8
1
 62
           250
100
AcDbPoint
 10
201.00000000000011
 20
14.99999999999999
  0
POINT
  5
59
100
AcDbEntity
  8
1
 62
           250
100
AcDbPoint
 10
166.0000000000002
 20
11.00000000000001
  0
POINT
  5
58
100
AcDbEntity
  8
1
 62
           250
100
AcDbPoint
 10
193.5
 20
12.99038105676658
  0
POINT
  5
57
100
AcDbEntity
  8
1
 62
           250
100
AcDbPoint
 10
159.84603731343299
 20
11.00000000000001
  0
POINT
  5
56
100
AcDbEntity
  8
1
 62
           250
100
AcDbPoint
 10
159.0
 20
5.0
  0
POINT
  5
55
100
AcDbEntity
  8
1
 62
           250
100
AcDbPoint
 10
156.114544776119
 20
3.91806716417909
  0
POINT
  5
54
100
AcDbEntity
  8
1
 62
           250
100
AcDbPoint
 10
157.114544776119
 20
-1.08193283582091
  0
POINT
  5
53
100
AcDbEntity
  8
1
 62
           250
100
AcDbPoint
 10
156.114544776119
 20
-4.29121641791045
  0
POINT
  5
52
100
AcDbEntity
  8
1
 62
           250
100
AcDbPoint
 10
65.03068528119221
 20
11.00000000000001
  0
POINT
  5
51
100
AcDbEntity
  8
1
 62
           250
100
AcDbPoint
 10
197.6156325543916
 20
14.61321514907334
  0
POINT
  5
50
100
AcDbEntity
  8
1
 62
           250
100
AcDbPoint
 10
166.00000000000011
 20
-11.0
  0
POINT
  5
4F
100
AcDbEntity
  8
1
 62
           250
100
AcDbPoint
 10
32.62599426751582
 20
9.56788890278438
  0
POINT
  5
4E
100
AcDbEntity
  8
1
 62
           250
100
AcDbPoint
 10
32.62599426751582
 20
-9.56788890278438
  0
POINT
  5
4D
100
AcDbEntity
  8
1
 62
           250
100
AcDbPoint
 10
124.0
 20
11.00000000000001
  0
POINT
  5
4C
100
AcDbEntity
  8
1
 62
           250
100
AcDbPoint
 10
124.0
 20
9.0
  0
POINT
  5
4B
100
AcDbEntity
  8
1
 62
           250
100
AcDbPoint
 10
110.0
 20
11.00000000000001
  0
POINT
  5
4A
100
AcDbEntity
  8
1
 62
           250
100
AcDbPoint
 10
110.0
 20
9.0
  0
POINT
  5
49
100
AcDbEntity
  8
1
 62
           250
100
AcDbPoint
 10
124.0
 20
-9.0
  0
POINT
  5
48
100
AcDbEntity
  8
1
 62
           250
100
AcDbPoint
 10
124.0
 20
-11.0
  0
POINT
  5
47
100
AcDbEntity
  8
1
 62
           250
100
AcDbPoint
 10
110.0
 20
-9.0
  0
POINT
  5
46
100
AcDbEntity
  8
1
 62
           250
100
AcDbPoint
 10
110.0
 20
-11.0
  0
POINT
  5
45
100
AcDbEntity
  8
1
 62
           250
100
AcDbPoint
 10
-26.0
 20
33.0
  0
POINT
  5
44
100
AcDbEntity
  8
1
 62
           250
100
AcDbPoint
 10
27.41540915397503
 20
33.0
  0
POINT
  5
43
100
AcDbEntity
  8
1
 62
           250
100
AcDbPoint
 10
31.24619148673463
 20
27.0
  0
POINT
  5
42
100
AcDbEntity
  8
1
 62
           250
100
AcDbPoint
 10
-26.0
 20
27.0
  0
POINT
  5
41
100
AcDbEntity
  8
1
 62
           250
100
AcDbPoint
 10
31.24619148673462
 20
-27.0
  0
POINT
  5
40
100
AcDbEntity
  8
1
 62
           250
100
AcDbPoint
 10
-26.0
 20
-27.0
  0
POINT
  5
3F
100
AcDbEntity
  8
1
 62
           250
100
AcDbPoint
 10
-26.0
 20
-33.0
  0
POINT
  5
3E
100
AcDbEntity
  8
1
 62
           250
100
AcDbPoint
 10
27.41540915397503
 20
-33.0
  0
POINT
  5
3D
100
AcDbEntity
  8
1
 62
           250
100
AcDbPoint
 10
119.0
 20
-5.0
  0
POINT
  5
3C
100
AcDbEntity
  8
1
 62
           250
100
AcDbPoint
 10
-20.0
 20
35.0
  0
POINT
  5
3B
100
AcDbEntity
  8
1
 62
           250
100
AcDbPoint
 10
-6.00000000000001
 20
-35.0
  0
POINT
  5
3A
100
AcDbEntity
  8
1
 62
           250
100
AcDbPoint
 10
-20.0
 20
36.0
  0
POINT
  5
39
100
AcDbEntity
  8
1
 62
           250
100
AcDbPoint
 10
-6.00000000000001
 20
36.0
  0
POINT
  5
38
100
AcDbEntity
  8
1
 62
           250
100
AcDbPoint
 10
6.0
 20
36.0
  0
POINT
  5
37
100
AcDbEntity
  8
1
 62
           250
100
AcDbPoint
 10
20.0
 20
36.0
  0
POINT
  5
36
100
AcDbEntity
  8
1
 62
           250
100
AcDbPoint
 10
-20.0
 20
-36.0
  0
POINT
  5
35
100
AcDbEntity
  8
1
 62
           250
100
AcDbPoint
 10
-6.00000000000001
 20
-36.0
  0
POINT
  5
34
100
AcDbEntity
  8
1
 62
           250
100
AcDbPoint
 10
6.0
 20
-36.0
  0
POINT
  5
33
100
AcDbEntity
  8
1
 62
           250
100
AcDbPoint
 10
20.0
 20
-36.0
  0
POINT
  5
32
100
AcDbEntity
  8
1
 62
           250
100
AcDbPoint
 10
197.6156325543916
 20
-14.61321514907332
  0
POINT
  5
31
100
AcDbEntity
  8
1
 62
           250
100
AcDbPoint
 10
65.03068528119221
 20
-11.0
  0
POINT
  5
30
100
AcDbEntity
  8
1
 62
           250
100
AcDbPoint
 10
-6.00000000000001
 20
35.0
  0
POINT
  5
2F
100
AcDbEntity
  8
1
 62
           250
100
AcDbPoint
 10
6.0
 20
35.0
  0
POINT
  5
2E
100
AcDbEntity
  8
1
 62
           250
100
AcDbPoint
 10
20.0
 20
35.0
  0
POINT
  5
2D
100
AcDbEntity
  8
1
 62
           250
100
AcDbPoint
 10
159.8460373134331
 20
-11.0
  0
POINT
  5
2C
100
AcDbEntity
  8
1
 62
           250
100
AcDbPoint
 10
0.0
 20
0.0
  0
POINT
  5
2B
100
AcDbEntity
  8
1
 62
           250
100
AcDbPoint
 10
-37.82909105489505
 20
-44.18750901601659
  0
POINT
  5
2A
100
AcDbEntity
  8
1
 62
           250
100
AcDbPoint
 10
-37.82909105489505
 20
47.68907437543589
  0
POINT
  5
29
100
AcDbEntity
  8
1
 62
           250
100
AcDbPoint
 10
221.7683640613117
 20
47.68907437543589
  0
POINT
  5
28
100
AcDbEntity
  8
1
 62
           250
100
AcDbPoint
 10
221.7683640613117
 20
-44.18750901601659
  0
INSERT
  5
122
100
AcDbEntity
  8
0
100
AcDbBlockReference
  2
*D5
 10
0.0
 20
0.0
  0
INSERT
  5
129
100
AcDbEntity
  8
0
100
AcDbBlockReference
  2
*D6
 10
0.0
 20
0.0
  0
INSERT
  5
130
100
AcDbEntity
  8
0
100
AcDbBlockReference
  2
*D7
 10
0.0
 20
0.0
  0
INSERT
  5
138
100
AcDbEntity
  8
0
100
AcDbBlockReference
  2
*D8
 10
0.0
 20
0.0
  0
INSERT
  5
13F
100
AcDbEntity
  8
0
100
AcDbBlockReference
  2
*D9
 10
0.0
 20
0.0
  0
ENDSEC
  0
SECTION
  2
OBJECTS
  0
DICTIONARY
  5
19
100
AcDbDictionary
  3
ACAD_GROUP
350
1A
  3
ACAD_MLINESTYLE
350
1B
  0
DICTIONARY
  5
1A
102
{ACAD_REACTORS
330
19
102
}
100
AcDbDictionary
  0
DICTIONARY
  5
1B
102
{ACAD_REACTORS
330
19
102
}
100
AcDbDictionary
  3
STANDARD
350
1C
  0
MLINESTYLE
  5
1C
102
{ACAD_REACTORS
330
1B
102
}
100
AcDbMlineStyle
  2
STANDARD
 70
             0
  3

 62
             0
 51
90.0
 52
90.0
 71
             2
 49
0.5
 62
           256
  6
BYLAYER
 49
-0.5
 62
           256
  6
BYLAYER
  0
ENDSEC
  0
EOF
