  0
SECTION
  2
HEADER
  9
$ACADVER
  1
AC1014
  9
$ACADMAINTVER
 70
             0
  9
$DWGCODEPAGE
  3
ANSI_1252
  9
$INSBASE
 10
0.0
 20
0.0
 30
0.0
  9
$EXTMIN
 10
1.00000000000000E+20
 20
1.00000000000000E+20
 30
1.00000000000000E+20
  9
$EXTMAX
 10
-1.00000000000000E+20
 20
-1.00000000000000E+20
 30
-1.00000000000000E+20
  9
$LIMMIN
 10
0.0
 20
0.0
  9
$LIMMAX
 10
0.0
 20
0.0
  9
$ORTHOMODE
 70
             0
  9
$REGENMODE
 70
             1
  9
$FILLMODE
 70
             1
  9
$QTEXTMODE
 70
             0
  9
$MIRRTEXT
 70
             1
  9
$DRAGMODE
 70
             2
  9
$LTSCALE
 40
1.0
  9
$OSMODE
 70
             0
  9
$ATTMODE
 70
             1
  9
$TEXTSIZE
 40
0.2
  9
$TRACEWID
 40
0.05
  9
$TEXTSTYLE
  7
STANDARD
  9
$CLAYER
  8
0
  9
$CELTYPE
  6
CONTINUOUS
  9
$CECOLOR
 62
           256
  9
$CELTSCALE
 40
1.0
  9
$DELOBJ
 70
             1
  9
$DISPSILH
 70
             0
  9
$DIMSCALE
 40
1.0
  9
$DIMASZ
 40
0.18
  9
$DIMEXO
 40
0.0625
  9
$DIMDLI
 40
0.38
  9
$DIMRND
 40
0.0
  9
$DIMDLE
 40
0.0
  9
$DIMEXE
 40
0.18
  9
$DIMTP
 40
0.0
  9
$DIMTM
 40
0.0
  9
$DIMTXT
 40
0.18
  9
$DIMCEN
 40
0.09
  9
$DIMTSZ
 40
0.0
  9
$DIMTOL
 70
             0
  9
$DIMLIM
 70
             0
  9
$DIMTIH
 70
             1
  9
$DIMTOH
 70
             1
  9
$DIMSE1
 70
             0
  9
$DIMSE2
 70
             0
  9
$DIMTAD
 70
             0
  9
$DIMZIN
 70
             0
  9
$DIMBLK
  1

  9
$DIMASO
 70
             1
  9
$DIMSHO
 70
             1
  9
$DIMPOST
  1

  9
$DIMAPOST
  1

  9
$DIMALT
 70
             0
  9
$DIMALTD
 70
             2
  9
$DIMALTF
 40
25.4
  9
$DIMLFAC
 40
1.0
  9
$DIMTOFL
 70
             0
  9
$DIMTVP
 40
0.0
  9
$DIMTIX
 70
             0
  9
$DIMSOXD
 70
             0
  9
$DIMSAH
 70
             0
  9
$DIMBLK1
  1

  9
$DIMBLK2
  1

  9
$DIMSTYLE
  2
STANDARD
  9
$DIMCLRD
 70
             0
  9
$DIMCLRE
 70
             0
  9
$DIMCLRT
 70
             0
  9
$DIMTFAC
 40
1.0
  9
$DIMGAP
 40
0.09
  9
$DIMJUST
 70
             0
  9
$DIMSD1
 70
             0
  9
$DIMSD2
 70
             0
  9
$DIMTOLJ
 70
             1
  9
$DIMTZIN
 70
             0
  9
$DIMALTZ
 70
             0
  9
$DIMALTTZ
 70
             0
  9
$DIMFIT
 70
             3
  9
$DIMUPT
 70
             0
  9
$DIMUNIT
 70
             2
  9
$DIMDEC
 70
             4
  9
$DIMTDEC
 70
             4
  9
$DIMALTU
 70
             2
  9
$DIMALTTD
 70
             2
  9
$DIMTXSTY
  7
STANDARD
  9
$DIMAUNIT
 70
             0
  9
$LUNITS
 70
             2
  9
$LUPREC
 70
             4
  9
$SKETCHINC
 40
0.1
  9
$FILLETRAD
 40
0.0
  9
$AUNITS
 70
             0
  9
$AUPREC
 70
             0
  9
$MENU
  1
acad
  9
$ELEVATION
 40
0.0
  9
$PELEVATION
 40
0.0
  9
$THICKNESS
 40
0.0
  9
$LIMCHECK
 70
             0
  9
$BLIPMODE
 70
             1
  9
$CHAMFERA
 40
0.0
  9
$CHAMFERB
 40
0.0
  9
$CHAMFERC
 40
0.0
  9
$CHAMFERD
 40
0.0
  9
$SKPOLY
 70
             0
  9
$TDCREATE
 40
0.000000000
  9
$TDUPDATE
 40
0.000000000
  9
$TDINDWG
 40
0.0000000000
  9
$TDUSRTIMER
 40
0.0000000000
  9
$USRTIMER
 70
             1
  9
$ANGBASE
 50
0.0
  9
$ANGDIR
 70
             0
  9
$PDMODE
 70
             0
  9
$PDSIZE
 40
0.0
  9
$PLINEWID
 40
0.0
  9
$COORDS
 70
             0
  9
$SPLFRAME
 70
             0
  9
$SPLINETYPE
 70
             6
  9
$SPLINESEGS
 70
             8
  9
$ATTDIA
 70
             0
  9
$ATTREQ
 70
             1
  9
$HANDLING
 70
             1
  9
$HANDSEED
  5
174
  9
$SURFTAB1
 70
             6
  9
$SURFTAB2
 70
             6
  9
$SURFTYPE
 70
             6
  9
$SURFU
 70
             6
  9
$SURFV
 70
             6
  9
$UCSNAME
  2

  9
$UCSORG
 10
0.0
 20
0.0
 30
0.0
  9
$UCSXDIR
 10
1.0
 20
0.0
 30
0.0
  9
$UCSYDIR
 10
0.0
 20
1.0
 30
0.0
  9
$PUCSNAME
  2

  9
$PUCSORG
 10
0.0
 20
0.0
 30
0.0
  9
$PUCSXDIR
 10
1.0
 20
0.0
 30
0.0
  9
$PUCSYDIR
 10
0.0
 20
1.0
 30
0.0
  9
$USERI1
 70
             0
  9
$USERI2
 70
             0
  9
$USERI3
 70
             0
  9
$USERI4
 70
             0
  9
$USERI5
 70
             0
  9
$USERR1
 40
11.0
  9
$USERR2
 40
0.0
  9
$USERR3
 40
0.0
  9
$USERR4
 40
0.0
  9
$USERR5
 40
0.0
  9
$WORLDVIEW
 70
             1
  9
$SHADEDGE
 70
             3
  9
$SHADEDIF
 70
            70
  9
$TILEMODE
 70
             1
  9
$MAXACTVP
 70
            16
  9
$PINSBASE
 10
0.0
 20
0.0
 30
0.0
  9
$PLIMCHECK
 70
             0
  9
$PEXTMIN
 10
1.00000000000000E+20
 20
1.00000000000000E+20
 30
1.00000000000000E+20
  9
$PEXTMAX
 10
-1.00000000000000E+20
 20
-1.00000000000000E+20
 30
-1.00000000000000E+20
  9
$PLIMMIN
 10
0.0
 20
0.0
  9
$PLIMMAX
 10
12.0
 20
9.0
  9
$UNITMODE
 70
             0
  9
$VISRETAIN
 70
             0
  9
$PLINEGEN
 70
             1
  9
$PSLTSCALE
 70
             0
  9
$TREEDEPTH
 70
          3020
  9
$PICKSTYLE
 70
             1
  9
$CMLSTYLE
  2
STANDARD
  9
$CMLJUST
 70
             0
  9
$CMLSCALE
 40
1.0
  9
$PROXYGRAPHICS
 70
             0
  9
$MEASUREMENT
 70
             1
  0
ENDSEC
  0
SECTION
  2
CLASSES
  0
CLASS
  1
LWPOLYLINE
  2
AcDbPolyline
  3
"AutoCAD"
 90
        0
280
             0
281
             1
  0
CLASS
  1
IMAGE
  2
AcDbRasterImage
  3
ISM
 90
      127
280
             0
281
             1
  0
CLASS
  1
OLE2FRAME
  2
AcDbOle2Frame
  3
""
 90
        0
280
             0
281
             1
  0
CLASS
  1
HATCH
  2
AcDbHatch
  3
"ACAD_SEDONA"
 90
        0
280
             0
281
             1
  0
CLASS
  1
DICTIONARYVAR
  2
AcDbDictionaryVar
  3
"AutoCAD"
 90
        0
280
             0
281
             0
  0
CLASS
  1
RASTERVARIABLES
  2
AcDbRasterVariables
  3
ISM
 90
        0
280
             0
281
             0
  0
CLASS
  1
IMAGEDEF
  2
AcDbRasterImageDef
  3
ISM
 90
        0
280
             0
281
             0
  0
CLASS
  1
IMAGEDEF_REACTOR
  2
AcDbRasterImageDefReactor
  3
ISM
 90
        1
280
             0
281
             0
  0
CLASS
  1
IDBUFFER
  2
AcDbIdBuffer
  3
"Acad"
 90
        0
280
             0
281
             0
  0
CLASS
  1
SPATIAL_FILTER
  2
AcDbSpatialFilter
  3
"Acad"
 90
        0
280
             0
281
             0
  0
CLASS
  1
XRECORD
  2
AcDbXrecord
  3
"<Built In>"
 90
        0
280
             0
281
             0
  0
CLASS
  1
SORTENTSTABLE
  2
AcDbSortentsTable
  3
"AutoCAD"
 90
        0
280
             0
281
             0
  0
CLASS
  1
LAYER_INDEX
  2
AcDbLayerIndex
  3
"Acad"
 90
        0
280
             0
281
             0
  0
CLASS
  1
SPATIAL_INDEX
  2
AcDbSpatialIndex
  3
"Acad"
 90
        0
280
             0
281
             0
  0
CLASS
  1
OBJECT_PTR
  2
CAseDLPNTableRecord
  3
"ASE-LPNTableRecord"
 90
        1
280
             0
281
             0
  0
CLASS
  1
LAYOUT
  2
AcDbLayout
  3
"AutoCAD 2000"
 90
        1
280
             0
281
             0
  0
CLASS
  1
PLOTSETTINGS
  2
AcDbPlotSettings
  3
"AutoCAD 2000"
 90
        1
280
             0
281
             0
  0
CLASS
  1
ACDBDICTIONARYWDFLT
  2
AcDbDictionaryWithDefault
  3
"AutoCAD 2000"
 90
        1
280
             0
281
             0
  0
CLASS
  1
ACDBPLACEHOLDER
  2
AcDbPlaceHolder
  3
"AutoCAD 2000"
 90
        1
280
             0
281
             0
  0
CLASS
  1
VBA_PROJECT
  2
AcDbVbaProject
  3
"acadvba"
 90
        1
280
             0
281
             0
  0
CLASS
  1
WIPEOUT
  2
AcDbWipeout
  3
WipeOut|AutoCAD Express Tool|expresstools@autodesk.com
 90
      127
280
             0
281
             1
  0
CLASS
  1
WIPEOUTVARIABLES
  2
AcDbWipeoutVariables
  3
WipeOut|AutoCAD Express Tool|expresstools@autodesk.com
 90
        0
280
             0
281
             0
  0
CLASS
  1
RTEXT
  2
RText
  3
RText|AutoCAD Express Tool|expresstools@autodesk.com
 90
        0
280
             0
281
             1
  0
CLASS
  1
ARCALIGNEDTEXT
  2
AcDbArcAlignedText
  3
ATEXT|AutoCAD Express Tool|expresstools@autodesk.com
 90
        0
280
             0
281
             1
  0
ENDSEC
  0
SECTION
  2
TABLES
  0
TABLE
  2
VPORT
  5
7
100
AcDbSymbolTable
 70
             1
  0
VPORT
  5
15
100
AcDbSymbolTableRecord
100
AcDbViewportTableRecord
  2
*ACTIVE
 70
             0
 10
0.0
 20
0.0
 11
1.0
 21
1.0
 12
172.503593640796
 22
216.19448733714327
 13
0.0
 23
0.0
 14
1.0
 24
1.0
 15
0.0
 25
0.0
 16
0.0
 26
0.0
 36
1.0
 17
0.0
 27
0.0
 37
0.0
 40
933.96120547504825
 41
1.60267857142857
 42
50.0
 43
0.0
 44
0.0
 50
0.0
 51
0.0
 71
             0
 72
           100
 73
             1
 74
             1
 75
             0
 76
             0
 77
             0
 78
             0
  0
ENDTAB
  0
TABLE
  2
LTYPE
  5
4
100
AcDbSymbolTable
 70
            10
  0
LTYPE
  5
11
100
AcDbSymbolTableRecord
100
AcDbLinetypeTableRecord
  2
BYBLOCK
 70
            64
  3

 72
            65
 73
             0
 40
0.0
  0
LTYPE
  5
12
100
AcDbSymbolTableRecord
100
AcDbLinetypeTableRecord
  2
BYLAYER
 70
            64
  3

 72
            65
 73
             0
 40
0.0
  0
LTYPE
  5
13
100
AcDbSymbolTableRecord
100
AcDbLinetypeTableRecord
  2
CONTINUOUS
 70
            64
  3
Solid line
 72
            65
 73
             0
 40
0.0
  0
LTYPE
  5
1D
100
AcDbSymbolTableRecord
100
AcDbLinetypeTableRecord
  2
DASHED
 70
            64
  3
Dashed
 72
            65
 73
             2
 40
15.0
 49
12.0
 74
             0
 49
-3.0
 74
             0
  0
LTYPE
  5
1E
100
AcDbSymbolTableRecord
100
AcDbLinetypeTableRecord
  2
DOTTED
 70
            64
  3
Dotted
 72
            65
 73
             2
 40
3.5
 49
0.5
 74
             0
 49
-3.0
 74
             0
  0
LTYPE
  5
1F
100
AcDbSymbolTableRecord
100
AcDbLinetypeTableRecord
  2
DOT_CENTER
 70
            64
  3
Dot_Center
 72
            65
 73
             4
 40
2.0
 49
1.25
 74
             0
 49
-0.25
 74
             0
 49
0.25
 74
             0
 49
-0.25
 74
             0
  0
LTYPE
  5
20
100
AcDbSymbolTableRecord
100
AcDbLinetypeTableRecord
  2
LONG_DASHED
 70
            64
  3
Long_Dashed
 72
            65
 73
             2
 40
2.0
 49
1.5
 74
             0
 49
-0.5
 74
             0
  0
LTYPE
  5
21
100
AcDbSymbolTableRecord
100
AcDbLinetypeTableRecord
  2
DASH_CENTER
 70
            64
  3
Dash_Center
 72
            65
 73
             4
 40
36.0
 49
24.0
 74
             0
 49
-3.0
 74
             0
 49
6.0
 74
             0
 49
-3.0
 74
             0
  0
LTYPE
  5
22
100
AcDbSymbolTableRecord
100
AcDbLinetypeTableRecord
  2
PHANTOM
 70
            64
  3
Phantom
 72
            65
 73
             6
 40
2.5
 49
1.25
 74
             0
 49
-0.25
 74
             0
 49
0.25
 74
             0
 49
-0.25
 74
             0
 49
0.25
 74
             0
 49
-0.25
 74
             0
  0
LTYPE
  5
23
100
AcDbSymbolTableRecord
100
AcDbLinetypeTableRecord
  2
CENTER_DASH_DASH
 70
            64
  3
Center_Dash_Dash
 72
            65
 73
             6
 40
22.0
 49
12.0
 74
             0
 49
-3.0
 74
             0
 49
0.5
 74
             0
 49
-3.0
 74
             0
 49
0.5
 74
             0
 49
-3.0
 74
             0
  0
ENDTAB
  0
TABLE
  2
LAYER
  5
2
100
AcDbSymbolTable
 70
             2
  0
LAYER
  5
14
100
AcDbSymbolTableRecord
100
AcDbLayerTableRecord
  2
0
 70
             0
 62
             7
  6
CONTINUOUS
  0
LAYER
  5
24
100
AcDbSymbolTableRecord
100
AcDbLayerTableRecord
  2
1
 70
             0
 62
             7
  6
CONTINUOUS
  0
ENDTAB
  0
TABLE
  2
STYLE
  5
3
100
AcDbSymbolTable
 70
             2
  0
STYLE
  5
17
100
AcDbSymbolTableRecord
100
AcDbTextStyleTableRecord
  2
STANDARD
 70
             0
 40
0.0
 41
1.0
 50
0.0
 71
             0
 42
0.0
  3
txt
  4

  0
STYLE
  5
48
100
AcDbSymbolTableRecord
100
AcDbTextStyleTableRecord
  2
CONVERTER_1
 70
             0
 40
0.0
 41
0.9
 50
0.0
 71
             0
 42
0.0
  3
txt.shx
  4

  0
ENDTAB
  0
TABLE
  2
VIEW
  5
5
100
AcDbSymbolTable
 70
             0
  0
ENDTAB
  0
TABLE
  2
UCS
  5
6
100
AcDbSymbolTable
 70
             0
  0
ENDTAB
  0
TABLE
  2
APPID
  5
8
100
AcDbSymbolTable
 70
             1
  0
APPID
  5
16
100
AcDbSymbolTableRecord
100
AcDbRegAppTableRecord
  2
ACAD
 70
             0
  0
ENDTAB
  0
TABLE
  2
DIMSTYLE
  5
9
100
AcDbSymbolTable
 70
            16
  0
DIMSTYLE
105
18
100
AcDbSymbolTableRecord
100
AcDbDimStyleTableRecord
  2
STANDARD
 70
             0
  3

  4

  5

  6

  7

 40
1.0
 41
0.18
 42
0.0625
 43
0.38
 44
0.18
 45
0.0
 46
0.0
 47
0.0
 48
0.0
 71
             0
 72
             0
 73
             1
 74
             1
 75
             0
 76
             0
 77
             0
 78
             0
140
0.18
141
0.09
142
0.0
143
25.4
144
1.0
145
0.0
146
1.0
147
0.09
170
             0
171
             2
172
             0
173
             0
174
             0
175
             0
176
             0
177
             0
178
             0
270
             2
271
             4
272
             4
273
             2
274
             2
275
             0
280
             0
281
             0
282
             0
283
             1
284
             0
285
             0
286
             0
287
             0
288
             0
340
17
  0
DIMSTYLE
105
4B
100
AcDbSymbolTableRecord
100
AcDbDimStyleTableRecord
  2
ME10_DIM_0
 70
             0
  3

  4

  5

  6

  7

 40
1.0
 41
3.5
 42
0.0
 43
0.38
 44
2.0
 45
0.0
 46
0.0
 47
0.0
 48
0.0
 71
             0
 72
             0
 73
             0
 74
             0
 75
             0
 76
             0
 77
             0
 78
             8
140
3.5
141
0.09
142
0.0
143
25.4
144
1.0
145
0.0
146
1.0
147
0.625
170
             0
171
             2
172
             0
173
             1
174
             0
175
             0
176
             2
177
             2
178
             2
270
             2
271
             2
272
             4
273
             2
274
             2
275
             0
280
             0
281
             0
282
             0
283
             1
284
             0
285
             0
286
             0
287
             0
288
             0
340
17
  0
DIMSTYLE
105
57
100
AcDbSymbolTableRecord
100
AcDbDimStyleTableRecord
  2
ME10_DIM_1
 70
             0
  3

  4

  5

  6

  7

 40
1.0
 41
3.5
 42
0.0
 43
0.38
 44
2.0
 45
0.0
 46
0.0
 47
0.0
 48
0.0
 71
             0
 72
             0
 73
             0
 74
             0
 75
             0
 76
             0
 77
             0
 78
             8
140
3.5
141
0.09
142
0.0
143
25.4
144
1.0
145
0.0
146
1.0
147
0.625
170
             0
171
             2
172
             0
173
             1
174
             0
175
             0
176
             2
177
             2
178
             2
270
             2
271
             2
272
             4
273
             2
274
             2
275
             0
280
             0
281
             0
282
             0
283
             1
284
             0
285
             0
286
             0
287
             0
288
             0
340
17
  0
DIMSTYLE
105
6F
100
AcDbSymbolTableRecord
100
AcDbDimStyleTableRecord
  2
ME10_DIM_2
 70
             0
  3

  4

  5

  6

  7

 40
1.0
 41
3.5
 42
0.0
 43
0.38
 44
2.0
 45
0.0
 46
0.0
 47
0.0
 48
0.0
 71
             0
 72
             0
 73
             0
 74
             0
 75
             0
 76
             0
 77
             0
 78
             8
140
3.5
141
0.09
142
0.0
143
25.4
144
1.0
145
0.0
146
1.0
147
0.625
170
             0
171
             2
172
             0
173
             1
174
             0
175
             0
176
             2
177
             2
178
             2
270
             2
271
             2
272
             4
273
             2
274
             2
275
             0
280
             0
281
             0
282
             0
283
             1
284
             0
285
             0
286
             0
287
             0
288
             0
340
17
  0
DIMSTYLE
105
8E
100
AcDbSymbolTableRecord
100
AcDbDimStyleTableRecord
  2
ME10_DIM_3
 70
             0
  3

  4

  5

  6

  7

 40
1.0
 41
3.5
 42
0.0
 43
0.38
 44
2.0
 45
0.0
 46
0.0
 47
0.0
 48
0.0
 71
             0
 72
             0
 73
             0
 74
             0
 75
             0
 76
             0
 77
             0
 78
             8
140
3.5
141
0.09
142
0.0
143
25.4
144
1.0
145
0.0
146
1.0
147
0.625
170
             0
171
             2
172
             0
173
             1
174
             0
175
             0
176
             2
177
             2
178
             2
270
             2
271
             2
272
             4
273
             2
274
             2
275
             0
280
             0
281
             0
282
             0
283
             1
284
             0
285
             0
286
             0
287
             0
288
             0
340
17
  0
DIMSTYLE
105
C7
100
AcDbSymbolTableRecord
100
AcDbDimStyleTableRecord
  2
ME10_DIM_4
 70
             0
  3

  4

  5

  6
_OPEN30
  7
_OPEN30
 40
1.0
 41
3.5
 42
0.0
 43
0.38
 44
2.0
 45
0.0
 46
0.0
 47
0.1
 48
0.1
 71
             1
 72
             0
 73
             0
 74
             0
 75
             0
 76
             0
 77
             0
 78
             8
140
3.5
141
0.09
142
0.0
143
0.03937007874016
144
1.0
145
0.0
146
0.6
147
0.625
170
             1
171
             3
172
             0
173
             1
174
             0
175
             0
176
             2
177
             2
178
             2
270
             2
271
             2
272
             1
273
             2
274
             2
275
             0
280
             0
281
             0
282
             0
283
             1
284
             0
285
             8
286
             0
287
             0
288
             0
340
17
  0
DIMSTYLE
105
E7
100
AcDbSymbolTableRecord
100
AcDbDimStyleTableRecord
  2
ME10_DIM_5
 70
             0
  3

  4

  5

  6

  7

 40
1.0
 41
3.5
 42
0.0
 43
0.38
 44
2.0
 45
0.0
 46
0.0
 47
0.0
 48
0.0
 71
             0
 72
             0
 73
             0
 74
             0
 75
             0
 76
             0
 77
             0
 78
             8
140
3.5
141
0.09
142
0.0
143
25.4
144
1.0
145
0.0
146
1.0
147
0.625
170
             0
171
             2
172
             0
173
             1
174
             0
175
             0
176
             2
177
             2
178
             2
270
             2
271
             2
272
             4
273
             2
274
             2
275
             0
280
             0
281
             0
282
             0
283
             1
284
             0
285
             0
286
             0
287
             0
288
             0
340
17
  0
DIMSTYLE
105
F3
100
AcDbSymbolTableRecord
100
AcDbDimStyleTableRecord
  2
ME10_DIM_6
 70
             0
  3

  4

  5

  6

  7

 40
1.0
 41
3.5
 42
0.0
 43
0.38
 44
2.0
 45
0.0
 46
0.0
 47
0.0
 48
0.0
 71
             0
 72
             0
 73
             0
 74
             0
 75
             0
 76
             0
 77
             0
 78
             8
140
3.5
141
0.09
142
0.0
143
25.4
144
1.0
145
0.0
146
1.0
147
0.625
170
             0
171
             2
172
             0
173
             1
174
             0
175
             0
176
             2
177
             2
178
             2
270
             2
271
             2
272
             4
273
             2
274
             2
275
             0
280
             0
281
             0
282
             0
283
             1
284
             0
285
             0
286
             0
287
             0
288
             0
340
17
  0
DIMSTYLE
105
118
100
AcDbSymbolTableRecord
100
AcDbDimStyleTableRecord
  2
ME10_DIM_7
 70
             0
  3

  4

  5

  6

  7

 40
1.0
 41
3.5
 42
0.0
 43
0.38
 44
2.0
 45
0.0
 46
0.0
 47
0.01
 48
0.01
 71
             1
 72
             0
 73
             0
 74
             0
 75
             0
 76
             0
 77
             0
 78
             8
140
3.5
141
0.09
142
0.0
143
25.4
144
1.0
145
0.0
146
0.6
147
0.625
170
             0
171
             2
172
             0
173
             1
174
             0
175
             0
176
             2
177
             2
178
             2
270
             2
271
             2
272
             2
273
             2
274
             2
275
             0
280
             0
281
             0
282
             0
283
             1
284
             0
285
             0
286
             0
287
             0
288
             0
340
17
  0
DIMSTYLE
105
124
100
AcDbSymbolTableRecord
100
AcDbDimStyleTableRecord
  2
ME10_DIM_8
 70
             0
  3

  4

  5

  6

  7

 40
1.0
 41
3.5
 42
0.0
 43
0.38
 44
2.0
 45
0.0
 46
0.0
 47
0.0
 48
0.0
 71
             0
 72
             0
 73
             0
 74
             0
 75
             0
 76
             0
 77
             0
 78
             8
140
3.5
141
0.09
142
0.0
143
25.4
144
1.0
145
0.0
146
1.0
147
0.625
170
             0
171
             2
172
             0
173
             1
174
             0
175
             0
176
             2
177
             2
178
             2
270
             2
271
             2
272
             4
273
             2
274
             2
275
             0
280
             0
281
             0
282
             0
283
             1
284
             0
285
             0
286
             0
287
             0
288
             0
340
17
  0
DIMSTYLE
105
130
100
AcDbSymbolTableRecord
100
AcDbDimStyleTableRecord
  2
ME10_DIM_9
 70
             0
  3

  4

  5

  6

  7

 40
1.0
 41
3.5
 42
0.0
 43
0.38
 44
2.0
 45
0.0
 46
0.0
 47
0.1
 48
0.1
 71
             1
 72
             0
 73
             0
 74
             0
 75
             0
 76
             0
 77
             0
 78
             8
140
3.5
141
0.09
142
0.0
143
25.4
144
1.0
145
0.0
146
0.6
147
0.625
170
             0
171
             2
172
             0
173
             1
174
             0
175
             0
176
             2
177
             2
178
             2
270
             2
271
             2
272
             1
273
             2
274
             2
275
             0
280
             0
281
             0
282
             0
283
             1
284
             0
285
             0
286
             0
287
             0
288
             0
340
17
  0
DIMSTYLE
105
13C
100
AcDbSymbolTableRecord
100
AcDbDimStyleTableRecord
  2
ME10_DIM_10
 70
             0
  3

  4

  5

  6

  7

 40
1.0
 41
3.5
 42
0.0
 43
0.38
 44
2.0
 45
0.0
 46
0.0
 47
0.0
 48
0.0
 71
             0
 72
             0
 73
             0
 74
             0
 75
             0
 76
             0
 77
             0
 78
             8
140
3.5
141
0.09
142
0.0
143
25.4
144
1.0
145
0.0
146
1.0
147
0.625
170
             0
171
             2
172
             0
173
             1
174
             0
175
             0
176
             2
177
             2
178
             2
270
             2
271
             2
272
             4
273
             2
274
             2
275
             0
280
             0
281
             0
282
             0
283
             1
284
             0
285
             0
286
             0
287
             0
288
             0
340
17
  0
DIMSTYLE
105
146
100
AcDbSymbolTableRecord
100
AcDbDimStyleTableRecord
  2
ME10_DIM_11
 70
             0
  3

  4

  5

  6

  7

 40
1.0
 41
3.5
 42
0.0
 43
0.38
 44
2.0
 45
0.0
 46
0.0
 47
0.0
 48
0.0
 71
             0
 72
             0
 73
             0
 74
             0
 75
             0
 76
             0
 77
             0
 78
             8
140
3.5
141
0.09
142
0.0
143
25.4
144
1.0
145
0.0
146
1.0
147
0.625
170
             0
171
             2
172
             0
173
             1
174
             0
175
             0
176
             2
177
             2
178
             2
270
             2
271
             2
272
             4
273
             2
274
             2
275
             0
280
             0
281
             0
282
             0
283
             1
284
             0
285
             0
286
             0
287
             0
288
             0
340
17
  0
DIMSTYLE
105
159
100
AcDbSymbolTableRecord
100
AcDbDimStyleTableRecord
  2
ME10_DIM_12
 70
             0
  3

  4

  5

  6

  7

 40
1.0
 41
1.2
 42
0.0
 43
0.38
 44
2.4
 45
0.0
 46
0.0
 47
0.0
 48
0.0
 71
             0
 72
             0
 73
             1
 74
             1
 75
             0
 76
             0
 77
             0
 78
             8
140
1.2
141
0.09
142
0.0
143
25.4
144
1.0
145
0.0
146
1.0
147
0.625
170
             0
171
             2
172
             0
173
             1
174
             0
175
             0
176
             2
177
             2
178
             2
270
             2
271
             2
272
             4
273
             2
274
             2
275
             0
280
             0
281
             0
282
             0
283
             1
284
             0
285
             0
286
             0
287
             0
288
             0
340
17
  0
DIMSTYLE
105
165
100
AcDbSymbolTableRecord
100
AcDbDimStyleTableRecord
  2
ME10_DIM_13
 70
             0
  3

  4

  5

  6

  7

 40
1.0
 41
1.2
 42
0.0
 43
0.38
 44
2.4
 45
0.0
 46
0.0
 47
0.0
 48
0.0
 71
             0
 72
             0
 73
             1
 74
             1
 75
             0
 76
             0
 77
             0
 78
             8
140
1.2
141
0.09
142
0.0
143
25.4
144
1.0
145
0.0
146
1.0
147
0.625
170
             0
171
             2
172
             0
173
             1
174
             0
175
             0
176
             2
177
             2
178
             2
270
             2
271
             2
272
             4
273
             2
274
             2
275
             0
280
             0
281
             0
282
             0
283
             1
284
             0
285
             0
286
             0
287
             0
288
             0
340
17
  0
DIMSTYLE
105
16F
100
AcDbSymbolTableRecord
100
AcDbDimStyleTableRecord
  2
ME10_DIM_14
 70
             0
  3

  4

  5

  6

  7

 40
1.0
 41
1.2
 42
0.0
 43
0.38
 44
2.4
 45
0.0
 46
0.0
 47
0.0
 48
0.0
 71
             0
 72
             0
 73
             1
 74
             1
 75
             0
 76
             0
 77
             0
 78
             8
140
1.2
141
0.09
142
0.0
143
25.4
144
1.0
145
0.0
146
1.0
147
0.625
170
             0
171
             2
172
             0
173
             1
174
             0
175
             0
176
             2
177
             2
178
             2
270
             2
271
             2
272
             4
273
             2
274
             2
275
             0
280
             0
281
             0
282
             0
283
             1
284
             0
285
             0
286
             0
287
             0
288
             0
340
17
  0
ENDTAB
  0
TABLE
  2
BLOCK_RECORD
  5
1
100
AcDbSymbolTable
 70
            32
  0
BLOCK_RECORD
  5
A
100
AcDbSymbolTableRecord
100
AcDbBlockTableRecord
  2
*MODEL_SPACE
  0
BLOCK_RECORD
  5
B
100
AcDbSymbolTableRecord
100
AcDbBlockTableRecord
  2
*PAPER_SPACE
  0
BLOCK_RECORD
  5
25
100
AcDbSymbolTableRecord
100
AcDbBlockTableRecord
  2
KEYWAY_1
  0
BLOCK_RECORD
  5
27
100
AcDbSymbolTableRecord
100
AcDbBlockTableRecord
  2
OVAL_SLOT_1
  0
BLOCK_RECORD
  5
29
100
AcDbSymbolTableRecord
100
AcDbBlockTableRecord
  2
FLANGE_1
  0
BLOCK_RECORD
  5
2B
100
AcDbSymbolTableRecord
100
AcDbBlockTableRecord
  2
OVAL_SLOT_2
  0
BLOCK_RECORD
  5
2D
100
AcDbSymbolTableRecord
100
AcDbBlockTableRecord
  2
TAB
  0
BLOCK_RECORD
  5
2F
100
AcDbSymbolTableRecord
100
AcDbBlockTableRecord
  2
HOLE_1
  0
BLOCK_RECORD
  5
31
100
AcDbSymbolTableRecord
100
AcDbBlockTableRecord
  2
HOLE_2
  0
BLOCK_RECORD
  5
40
100
AcDbSymbolTableRecord
100
AcDbBlockTableRecord
  2
*D7
  0
BLOCK_RECORD
  5
4D
100
AcDbSymbolTableRecord
100
AcDbBlockTableRecord
  2
*D8
  0
BLOCK_RECORD
  5
59
100
AcDbSymbolTableRecord
100
AcDbBlockTableRecord
  2
*D9
  0
BLOCK_RECORD
  5
65
100
AcDbSymbolTableRecord
100
AcDbBlockTableRecord
  2
*D10
  0
BLOCK_RECORD
  5
71
100
AcDbSymbolTableRecord
100
AcDbBlockTableRecord
  2
*D11
  0
BLOCK_RECORD
  5
84
100
AcDbSymbolTableRecord
100
AcDbBlockTableRecord
  2
*D12
  0
BLOCK_RECORD
  5
90
100
AcDbSymbolTableRecord
100
AcDbBlockTableRecord
  2
*D13
  0
BLOCK_RECORD
  5
97
100
AcDbSymbolTableRecord
100
AcDbBlockTableRecord
  2
*D14
  0
BLOCK_RECORD
  5
9E
100
AcDbSymbolTableRecord
100
AcDbBlockTableRecord
  2
*D15
  0
BLOCK_RECORD
  5
A5
100
AcDbSymbolTableRecord
100
AcDbBlockTableRecord
  2
*D16
  0
BLOCK_RECORD
  5
B3
100
AcDbSymbolTableRecord
100
AcDbBlockTableRecord
  2
*D17
  0
BLOCK_RECORD
  5
C1
100
AcDbSymbolTableRecord
100
AcDbBlockTableRecord
  2
_OPEN30
  0
BLOCK_RECORD
  5
C9
100
AcDbSymbolTableRecord
100
AcDbBlockTableRecord
  2
*D19
  0
BLOCK_RECORD
  5
DD
100
AcDbSymbolTableRecord
100
AcDbBlockTableRecord
  2
*D20
  0
BLOCK_RECORD
  5
E9
100
AcDbSymbolTableRecord
100
AcDbBlockTableRecord
  2
*D21
  0
BLOCK_RECORD
  5
F5
100
AcDbSymbolTableRecord
100
AcDbBlockTableRecord
  2
*D22
  0
BLOCK_RECORD
  5
FC
100
AcDbSymbolTableRecord
100
AcDbBlockTableRecord
  2
*D23
  0
BLOCK_RECORD
  5
10E
100
AcDbSymbolTableRecord
100
AcDbBlockTableRecord
  2
*D24
  0
BLOCK_RECORD
  5
11A
100
AcDbSymbolTableRecord
100
AcDbBlockTableRecord
  2
*D25
  0
BLOCK_RECORD
  5
126
100
AcDbSymbolTableRecord
100
AcDbBlockTableRecord
  2
*D26
  0
BLOCK_RECORD
  5
132
100
AcDbSymbolTableRecord
100
AcDbBlockTableRecord
  2
*D27
  0
BLOCK_RECORD
  5
13E
100
AcDbSymbolTableRecord
100
AcDbBlockTableRecord
  2
*D28
  0
BLOCK_RECORD
  5
14F
100
AcDbSymbolTableRecord
100
AcDbBlockTableRecord
  2
*D29
  0
BLOCK_RECORD
  5
15B
100
AcDbSymbolTableRecord
100
AcDbBlockTableRecord
  2
*D30
  0
BLOCK_RECORD
  5
167
100
AcDbSymbolTableRecord
100
AcDbBlockTableRecord
  2
*D31
  0
ENDTAB
  0
ENDSEC
  0
SECTION
  2
BLOCKS
  0
BLOCK
  5
D
100
AcDbEntity
  8
0
100
AcDbBlockBegin
  2
*MODEL_SPACE
 70
             0
 10
0.0
 20
0.0
 30
0.0
  3
*MODEL_SPACE
  1

  0
ENDBLK
  5
E
100
AcDbEntity
  8
0
100
AcDbBlockEnd
  0
BLOCK
  5
F
100
AcDbEntity
 67
             1
  8
0
100
AcDbBlockBegin
  2
*PAPER_SPACE
 70
             0
 10
0.0
 20
0.0
 30
0.0
  3
*PAPER_SPACE
  1

  0
ENDBLK
  5
10
100
AcDbEntity
 67
             1
  8
0
100
AcDbBlockEnd
  0
BLOCK
  5
26
100
AcDbEntity
  8
0
100
AcDbBlockBegin
  2
KEYWAY_1
 70
             0
 10
-0.34434166403018
 20
-250.0
 30
0.0
  3
KEYWAY_1
  1

  0
DIMENSION
  5
58
100
AcDbEntity
  8
1
100
AcDbDimension
  2
*D8
 10
43.5676410325052
 20
-183.244331198791
 11
51.948135849829
 21
-183.244331198791
 31
0.0
 70
             1
 53
0.00013888888889
  1
<>
  3
ME10_DIM_1
100
AcDbAlignedDimension
 13
59.5676410325052
 23
-191.08633541039811
 14
43.5676410325052
 24
-191.08633541039811
  0
DIMENSION
  5
4C
100
AcDbEntity
  8
1
100
AcDbDimension
  2
*D7
 10
98.7489983806602
 20
-220.0
 11
98.7489983806602
 21
-210.25946322878301
 31
0.0
 53
90.0
  1
<>
  3
ME10_DIM_0
100
AcDbAlignedDimension
 13
59.5676410325052
 23
-200.0
 14
51.5676410325052
 24
-220.0
 50
90.0
100
AcDbRotatedDimension
  0
ARC
  5
3F
100
AcDbEntity
  8
1
  6
CONTINUOUS
 62
             7
100
AcDbCircle
 10
51.5676410325052
 20
-220.0
 40
29.99999999999998
100
AcDbArc
 50
105.46600995342057
 51
74.53399004657943
  0
LINE
  5
3E
100
AcDbEntity
  8
1
  6
CONTINUOUS
 62
             7
100
AcDbLine
 10
43.5676410325052
 20
-200.0
 11
43.5676410325052
 21
-191.08633541039811
  0
LINE
  5
3D
100
AcDbEntity
  8
1
  6
CONTINUOUS
 62
             7
100
AcDbLine
 10
59.5676410325052
 20
-200.0
 11
43.5676410325052
 21
-200.0
  0
LINE
  5
3C
100
AcDbEntity
  8
1
  6
CONTINUOUS
 62
             7
100
AcDbLine
 10
59.5676410325052
 20
-191.08633541039811
 11
59.5676410325052
 21
-200.0
  0
INSERT
  5
5F
100
AcDbEntity
  8
0
100
AcDbBlockReference
  2
*D9
 10
0.0
 20
0.0
  0
ENDBLK
  5
60
100
AcDbEntity
  8
0
100
AcDbBlockEnd
  0
BLOCK
  5
28
100
AcDbEntity
  8
0
100
AcDbBlockBegin
  2
OVAL_SLOT_1
 70
             0
 10
-1.13328574141487
 20
47.85467814961815
 30
0.0
  3
OVAL_SLOT_1
  1

  0
DIMENSION
  5
70
100
AcDbEntity
  8
1
100
AcDbDimension
  2
*D10
 10
7.88404025686459
 20
119.272589193058
 11
57.6748011264298
 21
119.272589193058
 31
0.0
 70
             1
 53
0.00013888888889
  1
<>
  3
ME10_DIM_2
100
AcDbAlignedDimension
 13
107.88404025686459
 23
114.1200576131687
 14
7.88404025686459
 24
114.1200576131687
  0
ARC
  5
64
100
AcDbEntity
  8
1
  6
CONTINUOUS
 62
             7
100
AcDbCircle
 10
7.88404025686459
 20
94.1200576131687
 40
20.0
100
AcDbArc
 50
90.0
 51
-90.0
  0
ARC
  5
63
100
AcDbEntity
  8
1
  6
CONTINUOUS
 62
             7
100
AcDbCircle
 10
107.88404025686459
 20
94.1200576131687
 40
20.0
100
AcDbArc
 50
-90.0
 51
90.0
  0
LINE
  5
62
100
AcDbEntity
  8
1
  6
CONTINUOUS
 62
             7
100
AcDbLine
 10
7.88404025686459
 20
114.1200576131687
 11
107.88404025686459
 21
114.1200576131687
  0
LINE
  5
61
100
AcDbEntity
  8
1
  6
CONTINUOUS
 62
             7
100
AcDbLine
 10
7.88404025686459
 20
74.1200576131687
 11
107.88404025686459
 21
74.1200576131687
  0
INSERT
  5
77
100
AcDbEntity
  8
0
100
AcDbBlockReference
  2
*D11
 10
0.0
 20
0.0
  0
ENDBLK
  5
78
100
AcDbEntity
  8
0
100
AcDbBlockEnd
  0
BLOCK
  5
2A
100
AcDbEntity
  8
0
100
AcDbBlockBegin
  2
FLANGE_1
 70
             0
 10
-8.09639715772
 20
-112.21286689202
 30
0.0
  3
FLANGE_1
  1

  0
DIMENSION
  5
8F
100
AcDbEntity
  8
1
100
AcDbDimension
  2
*D12
 10
41.90360284227999
 20
-110.21286689202
 11
63.9244627539645
 21
-110.21286689202
 31
0.0
 70
             1
 53
0.00013888888889
  1
<>
  3
ME10_DIM_3
100
AcDbAlignedDimension
 13
81.90360284228001
 23
-76.0
 14
41.90360284228
 24
-76.0
  0
CIRCLE
  5
83
100
AcDbEntity
  8
1
  6
CONTINUOUS
 62
             7
100
AcDbCircle
 10
1.90360284228
 20
-76.0
 40
5.0
  0
CIRCLE
  5
82
100
AcDbEntity
  8
1
  6
CONTINUOUS
 62
             7
100
AcDbCircle
 10
81.90360284228001
 20
-76.0
 40
5.0
  0
CIRCLE
  5
81
100
AcDbEntity
  8
1
  6
CONTINUOUS
 62
             7
100
AcDbCircle
 10
41.90360284228
 20
-76.0
 40
15.0
  0
ARC
  5
80
100
AcDbEntity
  8
1
  6
CONTINUOUS
 62
             7
100
AcDbCircle
 10
41.90360284228
 20
-76.0
 40
26.0
100
AcDbArc
 50
66.42182152179817
 51
113.57817847820183
  0
ARC
  5
7F
100
AcDbEntity
  8
1
  6
CONTINUOUS
 62
             7
100
AcDbCircle
 10
1.90360284228
 20
-76.0
 40
10.00000000000001
100
AcDbArc
 50
113.57817847820183
 51
-113.57817847820182
  0
ARC
  5
7E
100
AcDbEntity
  8
1
  6
CONTINUOUS
 62
             7
100
AcDbCircle
 10
81.90360284228001
 20
-76.0
 40
9.99999999999999
100
AcDbArc
 50
-66.42182152179815
 51
66.42182152179815
  0
ARC
  5
7D
100
AcDbEntity
  8
1
  6
CONTINUOUS
 62
             7
100
AcDbCircle
 10
41.90360284228
 20
-76.0
 40
26.00000000000001
100
AcDbArc
 50
-113.57817847820183
 51
-66.42182152179815
  0
LINE
  5
7C
100
AcDbEntity
  8
1
  6
CONTINUOUS
 62
             7
100
AcDbLine
 10
85.90360284228001
 20
-66.83484861008833
 11
52.30360284228001
 21
-52.17060638622963
  0
LINE
  5
7B
100
AcDbEntity
  8
1
  6
CONTINUOUS
 62
             7
100
AcDbLine
 10
31.50360284228
 20
-52.17060638622962
 11
-2.09639715772
 21
-66.83484861008832
  0
LINE
  5
7A
100
AcDbEntity
  8
1
  6
CONTINUOUS
 62
             7
100
AcDbLine
 10
-2.09639715772
 20
-85.1651513899117
 11
31.50360284228
 21
-99.82939361377038
  0
LINE
  5
79
100
AcDbEntity
  8
1
  6
CONTINUOUS
 62
             7
100
AcDbLine
 10
52.30360284228001
 20
-99.82939361377036
 11
85.90360284228001
 21
-85.16515138991167
  0
INSERT
  5
96
100
AcDbEntity
  8
0
100
AcDbBlockReference
  2
*D13
 10
0.0
 20
0.0
  0
INSERT
  5
9D
100
AcDbEntity
  8
0
100
AcDbBlockReference
  2
*D14
 10
0.0
 20
0.0
  0
INSERT
  5
A4
100
AcDbEntity
  8
0
100
AcDbBlockReference
  2
*D15
 10
0.0
 20
0.0
  0
INSERT
  5
AB
100
AcDbEntity
  8
0
100
AcDbBlockReference
  2
*D16
 10
0.0
 20
0.0
  0
ENDBLK
  5
AC
100
AcDbEntity
  8
0
100
AcDbBlockEnd
  0
BLOCK
  5
2C
100
AcDbEntity
  8
0
100
AcDbBlockBegin
  2
OVAL_SLOT_2
 70
             0
 10
-1.13328574141487
 20
-34.14532185038185
 30
0.0
  3
OVAL_SLOT_2
  1

  0
DIMENSION
  5
C8
100
AcDbEntity
  8
1
100
AcDbDimension
  2
*D17
 10
127.88404025686459
 20
-16.287071385329
 11
55.6423631377378
 21
-16.287071385329
 31
0.0
 70
             1
 53
0.00013888888889
  1
<>
  3
ME10_DIM_4
100
AcDbAlignedDimension
 13
-12.11595974313541
 23
12.1200576131687
 14
127.88404025686459
 24
12.1200576131687
  0
ARC
  5
B2
100
AcDbEntity
  8
1
  6
CONTINUOUS
 62
             7
100
AcDbCircle
 10
107.88404025686459
 20
12.1200576131687
 40
20.0
100
AcDbArc
 50
0.0
 51
90.0
  0
ARC
  5
B1
100
AcDbEntity
  8
1
  6
CONTINUOUS
 62
             7
100
AcDbCircle
 10
7.88404025686459
 20
12.1200576131687
 40
20.0
100
AcDbArc
 50
180.0
 51
-90.0
  0
ARC
  5
B0
100
AcDbEntity
  8
1
  6
CONTINUOUS
 62
             7
100
AcDbCircle
 10
107.88404025686459
 20
12.1200576131687
 40
20.0
100
AcDbArc
 50
-90.0
 51
0.0
  0
ARC
  5
AF
100
AcDbEntity
  8
1
  6
CONTINUOUS
 62
             7
100
AcDbCircle
 10
7.88404025686459
 20
12.1200576131687
 40
20.0
100
AcDbArc
 50
90.0
 51
180.0
  0
LINE
  5
AE
100
AcDbEntity
  8
1
  6
CONTINUOUS
 62
             7
100
AcDbLine
 10
7.88404025686459
 20
-7.8799423868313
 11
107.88404025686459
 21
-7.8799423868313
  0
LINE
  5
AD
100
AcDbEntity
  8
1
  6
CONTINUOUS
 62
             7
100
AcDbLine
 10
7.88404025686459
 20
32.1200576131687
 11
107.88404025686459
 21
32.1200576131687
  0
INSERT
  5
CF
100
AcDbEntity
  8
0
100
AcDbBlockReference
  2
*D19
 10
0.0
 20
0.0
  0
ENDBLK
  5
D0
100
AcDbEntity
  8
0
100
AcDbBlockEnd
  0
BLOCK
  5
2E
100
AcDbEntity
  8
0
100
AcDbBlockBegin
  2
TAB
 70
             0
 10
219.11022959533929
 20
92.65053952466531
 30
0.0
  3
TAB
  1

  0
DIMENSION
  5
F4
100
AcDbEntity
  8
1
100
AcDbDimension
  2
*D21
 10
306.92813139762802
 20
94.65053952466531
 11
268.83647098267801
 21
94.65053952466531
 31
0.0
 53
0.00013888888889
  1
<>
  3
ME10_DIM_6
100
AcDbAlignedDimension
 13
231.92813139762799
 23
111.39933973469201
 14
306.92813139762802
 24
121.39933973469201
100
AcDbRotatedDimension
  0
DIMENSION
  5
E8
100
AcDbEntity
  8
1
100
AcDbDimension
  2
*D20
 10
236.38082154749199
 20
141.39933973469201
 11
236.38082154749199
 21
129.63267664043499
 31
0.0
 53
90.0
  1
<>
  3
ME10_DIM_5
100
AcDbAlignedDimension
 13
236.92813139762799
 23
116.39933973469201
 14
236.92813139762799
 24
141.39933973469201
 50
90.0
100
AcDbRotatedDimension
  0
ARC
  5
DC
100
AcDbEntity
  8
1
  6
CONTINUOUS
 62
             7
100
AcDbCircle
 10
236.92813139762799
 20
146.39933973469201
 40
5.0
100
AcDbArc
 50
90.0
 51
-90.0
  0
ARC
  5
DB
100
AcDbEntity
  8
1
  6
CONTINUOUS
 62
             7
100
AcDbCircle
 10
236.92813139762799
 20
111.39933973469201
 40
5.0
100
AcDbArc
 50
180.0
 51
-90.0
  0
ARC
  5
DA
100
AcDbEntity
  8
1
  6
CONTINUOUS
 62
             7
100
AcDbCircle
 10
236.92813139762799
 20
111.39933973469201
 40
5.0
100
AcDbArc
 50
90.0
 51
180.0
  0
LINE
  5
D9
100
AcDbEntity
  8
1
  6
CONTINUOUS
 62
             7
100
AcDbLine
 10
301.92813139762802
 20
106.39933973469201
 11
236.92813139762799
 21
106.39933973469201
  0
LINE
  5
D8
100
AcDbEntity
  8
1
  6
CONTINUOUS
 62
             7
100
AcDbLine
 10
301.92813139762802
 20
151.39933973469201
 11
236.92813139762799
 21
151.39933973469201
  0
LINE
  5
D7
100
AcDbEntity
  8
1
  6
CONTINUOUS
 62
             7
100
AcDbLine
 10
301.92813139762802
 20
141.39933973469201
 11
236.92813139762799
 21
141.39933973469201
  0
LINE
  5
D6
100
AcDbEntity
  8
1
  6
CONTINUOUS
 62
             7
100
AcDbLine
 10
301.92813139762802
 20
116.39933973469201
 11
236.92813139762799
 21
116.39933973469201
  0
LINE
  5
D5
100
AcDbEntity
  8
1
  6
CONTINUOUS
 62
             7
100
AcDbLine
 10
306.92813139762802
 20
136.39933973469201
 11
306.92813139762802
 21
121.39933973469201
  0
LINE
  5
D4
100
AcDbEntity
  8
1
  6
CONTINUOUS
 62
             7
100
AcDbLine
 10
306.92813139762802
 20
156.39933973469201
 11
306.92813139762802
 21
171.39933973469201
  0
LINE
  5
D3
100
AcDbEntity
  8
1
  6
CONTINUOUS
 62
             7
100
AcDbLine
 10
306.92813139762802
 20
156.39933973469201
 11
301.92813139762802
 21
151.39933973469201
  0
LINE
  5
D2
100
AcDbEntity
  8
1
  6
CONTINUOUS
 62
             7
100
AcDbLine
 10
306.92813139762802
 20
136.39933973469201
 11
301.92813139762802
 21
141.39933973469201
  0
LINE
  5
D1
100
AcDbEntity
  8
1
  6
CONTINUOUS
 62
             7
100
AcDbLine
 10
306.92813139762802
 20
121.39933973469201
 11
301.92813139762802
 21
116.39933973469201
  0
INSERT
  5
FB
100
AcDbEntity
  8
0
100
AcDbBlockReference
  2
*D22
 10
0.0
 20
0.0
  0
INSERT
  5
102
100
AcDbEntity
  8
0
100
AcDbBlockReference
  2
*D23
 10
0.0
 20
0.0
  0
ENDBLK
  5
103
100
AcDbEntity
  8
0
100
AcDbBlockEnd
  0
BLOCK
  5
30
100
AcDbEntity
  8
0
100
AcDbBlockBegin
  2
HOLE_1
 70
             0
 10
233.74792317593199
 20
-27.3452746069647
 30
0.0
  3
HOLE_1
  1

  0
DIMENSION
  5
147
100
AcDbEntity
  8
1
100
AcDbDimension
  2
*D28
 10
249.20529527498613
 20
-9.8452746069647
 11
248.81290080460499
 21
-9.7656955679488
 31
0.0
 70
             5
  1
<>
  3
ME10_DIM_11
100
AcDb3PointAngularDimension
 13
244.67793580649695
 23
-20.77528723752961
 14
244.67793580649695
 24
1.08473802360021
 15
233.74792317593199
 25
-9.8452746069647
  0
DIMENSION
  5
13D
100
AcDbEntity
  8
1
100
AcDbDimension
  2
*D27
 10
306.24792317593199
 20
21.8737267091159
 11
276.24792317593199
 21
21.8737267091159
 31
0.0
 53
0.00013888888889
  1
<>
  3
ME10_DIM_10
100
AcDbAlignedDimension
 13
246.24792317593199
 23
2.6547253930353
 14
306.24792317593199
 24
7.6547253930353
100
AcDbRotatedDimension
  0
DIMENSION
  5
131
100
AcDbEntity
  8
1
100
AcDbDimension
  2
*D26
 10
306.24792317593199
 20
13.8737267091159
 11
286.78734528589302
 21
13.8737267091159
 31
0.0
 53
0.00013888888889
  1
<>
  3
ME10_DIM_9
100
AcDbAlignedDimension
 13
266.24792317593199
 23
7.6547253930353
 14
306.24792317593199
 24
7.6547253930353
100
AcDbRotatedDimension
  0
DIMENSION
  5
125
100
AcDbEntity
  8
1
100
AcDbDimension
  2
*D25
 10
311.19431056935099
 20
-22.3452746069647
 11
311.19431056935099
 21
-9.49728987570703
 31
0.0
 70
             1
 53
90.0
  1
<>
  3
ME10_DIM_8
100
AcDbAlignedDimension
 13
306.24792317593199
 23
2.6547253930353
 14
306.24792317593199
 24
-22.3452746069647
  0
DIMENSION
  5
119
100
AcDbEntity
  8
1
100
AcDbDimension
  2
*D24
 10
318.64844804129098
 20
7.6547253930353
 11
318.64844804129098
 21
-8.38473204407421
 31
0.0
 70
             1
 53
90.0
  1
<>
  3
ME10_DIM_7
100
AcDbAlignedDimension
 13
306.24792317593199
 23
-27.3452746069647
 14
306.24792317593199
 24
7.6547253930353
  0
LINE
  5
10D
100
AcDbEntity
  8
1
  6
CONTINUOUS
 62
             7
100
AcDbLine
 10
306.24792317593199
 20
-22.3452746069647
 11
246.24792317593199
 21
-22.3452746069647
  0
LINE
  5
10C
100
AcDbEntity
  8
1
  6
CONTINUOUS
 62
             7
100
AcDbLine
 10
246.24792317593199
 20
2.6547253930353
 11
306.24792317593199
 21
2.6547253930353
  0
LINE
  5
10B
100
AcDbEntity
  8
1
  6
CONTINUOUS
 62
             7
100
AcDbLine
 10
306.24792317593199
 20
2.6547253930353
 11
306.24792317593199
 21
-22.3452746069647
  0
LINE
  5
10A
100
AcDbEntity
  8
1
  6
CONTINUOUS
 62
             7
100
AcDbLine
 10
306.24792317593199
 20
2.6547253930353
 11
306.24792317593199
 21
7.6547253930353
  0
LINE
  5
109
100
AcDbEntity
  8
1
  6
CONTINUOUS
 62
             7
100
AcDbLine
 10
306.24792317593199
 20
-22.3452746069647
 11
306.24792317593199
 21
-27.3452746069647
  0
LINE
  5
108
100
AcDbEntity
  8
1
  6
CONTINUOUS
 62
             7
100
AcDbLine
 10
266.24792317593199
 20
7.6547253930353
 11
266.24792317593199
 21
-27.3452746069647
  0
LINE
  5
107
100
AcDbEntity
  8
1
  6
CONTINUOUS
 62
             7
100
AcDbLine
 10
266.24792317593199
 20
7.6547253930353
 11
306.24792317593199
 21
7.6547253930353
  0
LINE
  5
106
100
AcDbEntity
  8
1
  6
CONTINUOUS
 62
             7
100
AcDbLine
 10
266.24792317593199
 20
-27.3452746069647
 11
306.24792317593199
 21
-27.3452746069647
  0
LINE
  5
105
100
AcDbEntity
  8
1
  6
CONTINUOUS
 62
             7
100
AcDbLine
 10
246.24792317593199
 20
2.6547253930353
 11
233.74792317593199
 21
-9.8452746069647
  0
LINE
  5
104
100
AcDbEntity
  8
1
  6
CONTINUOUS
 62
             7
100
AcDbLine
 10
246.24792317593199
 20
-22.3452746069647
 11
233.74792317593199
 21
-9.8452746069647
  0
ENDBLK
  5
148
100
AcDbEntity
  8
0
100
AcDbBlockEnd
  0
BLOCK
  5
32
100
AcDbEntity
  8
0
100
AcDbBlockBegin
  2
HOLE_2
 70
             0
 10
408.92343403723402
 20
759.26676960914403
 30
0.0
  3
HOLE_2
  1

  0
DIMENSION
  5
170
100
AcDbEntity
  8
1
100
AcDbDimension
  2
*D31
 10
413.77121105696369
 20
764.06676960914399
 11
413.77114565188702
 21
764.09195163005597
 31
0.0
 70
             5
  1
<>
  3
ME10_DIM_14
100
AcDb3PointAngularDimension
 13
411.34732254709877
 23
759.86847155817566
 14
411.34732254709877
 24
768.26506766011232
 15
408.92343403723402
 25
764.06676960914399
  0
DIMENSION
  5
166
100
AcDbEntity
  8
1
100
AcDbDimension
  2
*D30
 10
423.72458448104601
 20
759.26676960914403
 11
423.72458448104601
 21
764.12375175411091
 31
0.0
 53
0.00013888888889
  1
<>
  3
ME10_DIM_13
100
AcDbAlignedDimension
 13
421.69471532934409
 23
768.86676960914394
 14
421.69471532934409
 24
759.26676960914403
 50
90.0
100
AcDbRotatedDimension
  0
DIMENSION
  5
15A
100
AcDbEntity
  8
1
100
AcDbDimension
  2
*D29
 10
411.69471532934415
 20
760.180536371313
 11
416.66495694087502
 21
760.180536371313
 31
0.0
 53
0.00013888888889
  1
<>
  3
ME10_DIM_12
100
AcDbAlignedDimension
 13
421.69471532934409
 23
759.26676960914403
 14
411.69471532934409
 24
759.26676960914403
100
AcDbRotatedDimension
  0
LINE
  5
14E
100
AcDbEntity
  8
1
  6
CONTINUOUS
 62
             7
100
AcDbLine
 10
421.69471532934409
 20
759.26676960914403
 11
421.69471532934409
 21
768.86676960914394
  0
LINE
  5
14D
100
AcDbEntity
  8
1
  6
CONTINUOUS
 62
             7
100
AcDbLine
 10
411.69471532934409
 20
768.86676960914394
 11
411.69471532934409
 21
759.26676960914403
  0
LINE
  5
14C
100
AcDbEntity
  8
1
  6
CONTINUOUS
 62
             7
100
AcDbLine
 10
421.69471532934409
 20
759.26676960914403
 11
411.69471532934409
 21
759.26676960914403
  0
LINE
  5
14B
100
AcDbEntity
  8
1
  6
CONTINUOUS
 62
             7
100
AcDbLine
 10
421.69471532934409
 20
768.86676960914394
 11
411.69471532934409
 21
768.86676960914394
  0
LINE
  5
14A
100
AcDbEntity
  8
1
  6
CONTINUOUS
 62
             7
100
AcDbLine
 10
411.69471532934409
 20
768.86676960914394
 11
408.92343403723402
 21
764.06676960914399
  0
LINE
  5
149
100
AcDbEntity
  8
1
  6
CONTINUOUS
 62
             7
100
AcDbLine
 10
408.92343403723402
 20
764.06676960914399
 11
411.69471532934409
 21
759.26676960914403
  0
ENDBLK
  5
171
100
AcDbEntity
  8
0
100
AcDbBlockEnd
  0
BLOCK
  5
41
100
AcDbEntity
  8
0
100
AcDbBlockBegin
  2
*D7
 70
             1
 10
0.0
 20
0.0
 30
0.0
  3
*D7
  1

  0
LINE
  5
42
100
AcDbEntity
  8
0
  6
CONTINUOUS
 62
             2
100
AcDbLine
 10
98.7489983806602
 20
-220.0
 11
98.7489983806602
 21
-214.88446322878301
  0
LINE
  5
43
100
AcDbEntity
  8
0
  6
CONTINUOUS
 62
             2
100
AcDbLine
 10
98.7489983806602
 20
-205.63446322878301
 11
98.7489983806602
 21
-200.0
  0
LINE
  5
44
100
AcDbEntity
  8
0
  6
CONTINUOUS
 62
             2
100
AcDbLine
 10
51.5676410325052
 20
-220.0
 11
100.7489983806602
 21
-220.0
  0
LINE
  5
45
100
AcDbEntity
  8
0
  6
CONTINUOUS
 62
             2
100
AcDbLine
 10
59.5676410325052
 20
-200.0
 11
100.7489983806602
 21
-200.0
  0
SOLID
  5
46
100
AcDbEntity
  8
0
 62
             2
100
AcDbTrace
 10
98.28821463910431
 20
-216.5
 11
99.20978212221608
 21
-216.5
 12
98.7489983806602
 22
-220.0
 13
98.7489983806602
 23
-220.0
  0
SOLID
  5
47
100
AcDbEntity
  8
0
 62
             2
100
AcDbTrace
 10
99.20978212221608
 20
-203.5
 11
98.28821463910431
 21
-203.5
 12
98.7489983806602
 22
-200.0
 13
98.7489983806602
 23
-200.0
  0
MTEXT
  5
49
100
AcDbEntity
  8
0
 62
             2
100
AcDbMText
 10
100.4989983806602
 20
-212.88446322878301
 30
0.0
 40
3.5
 41
0.0
 71
             7
 72
             1
  1
20
  7
CONVERTER_1
 11
0.0
 21
1.0
 31
0.0
  0
ENDBLK
  5
4A
100
AcDbEntity
  8
0
100
AcDbBlockEnd
  0
BLOCK
  5
4E
100
AcDbEntity
  8
0
100
AcDbBlockBegin
  2
*D8
 70
             1
 10
0.0
 20
0.0
 30
0.0
  3
*D8
  1

  0
LINE
  5
4F
100
AcDbEntity
  8
0
  6
CONTINUOUS
 62
             2
100
AcDbLine
 10
43.5676410325052
 20
-183.244331198791
 11
36.5676410325052
 21
-183.244331198791
  0
LINE
  5
50
100
AcDbEntity
  8
0
  6
CONTINUOUS
 62
             2
100
AcDbLine
 10
59.5676410325052
 20
-183.244331198791
 11
66.56764103250521
 21
-183.244331198791
  0
LINE
  5
51
100
AcDbEntity
  8
0
  6
CONTINUOUS
 62
             2
100
AcDbLine
 10
43.5676410325052
 20
-191.08633541039808
 11
43.5676410325052
 21
-181.244331198791
  0
LINE
  5
52
100
AcDbEntity
  8
0
  6
CONTINUOUS
 62
             2
100
AcDbLine
 10
59.5676410325052
 20
-191.08633541039808
 11
59.5676410325052
 21
-181.244331198791
  0
SOLID
  5
53
100
AcDbEntity
  8
0
 62
             2
100
AcDbTrace
 10
40.0676410325052
 20
-183.70511494034687
 11
40.0676410325052
 21
-182.78354745723513
 12
43.5676410325052
 22
-183.244331198791
 13
43.5676410325052
 23
-183.244331198791
  0
SOLID
  5
54
100
AcDbEntity
  8
0
 62
             2
100
AcDbTrace
 10
63.0676410325052
 20
-182.78354745723513
 11
63.0676410325052
 21
-183.70511494034687
 12
59.5676410325052
 22
-183.244331198791
 13
59.5676410325052
 23
-183.244331198791
  0
MTEXT
  5
55
100
AcDbEntity
  8
0
 62
             2
100
AcDbMText
 10
49.848135849829
 20
-184.994331198791
 30
0.0
 40
3.5
 41
0.0
 71
             7
 72
             1
  1
16
  7
CONVERTER_1
 11
0.99999999999706
 21
0.00000242406841
 31
0.0
  0
ENDBLK
  5
56
100
AcDbEntity
  8
0
100
AcDbBlockEnd
  0
BLOCK
  5
5A
100
AcDbEntity
  8
0
100
AcDbBlockBegin
  2
*D9
 70
             1
 10
0.0
 20
0.0
 30
0.0
  3
*D9
  1

  0
LINE
  5
5B
100
AcDbEntity
  8
0
  6
CONTINUOUS
 62
             2
100
AcDbLine
 10
21.56779738658384
 20
-220.09685669967462
 11
11.11124863497748
 21
-220.13061643569259
  0
SOLID
  5
5C
100
AcDbEntity
  8
0
 62
             2
100
AcDbTrace
 10
18.06930329430871
 20
-220.56893798801192
 11
18.06632796147732
 21
-219.647375307928
 12
21.56779738658384
 22
-220.09685669967462
 13
21.56779738658384
 23
-220.09685669967462
  0
MTEXT
  5
5D
100
AcDbEntity
  8
0
 62
             2
100
AcDbMText
 10
0.99695135256771
 20
-221.91328030839492
 30
0.0
 40
3.5
 41
0.0
 71
             7
 72
             1
  1
\C2;R\C2;30
  7
CONVERTER_1
 11
0.99999478819738
 21
0.00322855665582
 31
0.0
  0
ENDBLK
  5
5E
100
AcDbEntity
  8
0
100
AcDbBlockEnd
  0
BLOCK
  5
66
100
AcDbEntity
  8
0
100
AcDbBlockBegin
  2
*D10
 70
             1
 10
0.0
 20
0.0
 30
0.0
  3
*D10
  1

  0
LINE
  5
67
100
AcDbEntity
  8
0
  6
CONTINUOUS
 62
             2
100
AcDbLine
 10
7.88404025686459
 20
119.272589193058
 11
51.9998011264298
 21
119.272589193058
  0
LINE
  5
68
100
AcDbEntity
  8
0
  6
CONTINUOUS
 62
             2
100
AcDbLine
 10
63.3498011264298
 20
119.272589193058
 11
107.88404025686461
 21
119.272589193058
  0
LINE
  5
69
100
AcDbEntity
  8
0
  6
CONTINUOUS
 62
             2
100
AcDbLine
 10
7.88404025686459
 20
114.1200576131687
 11
7.88404025686459
 21
121.272589193058
  0
LINE
  5
6A
100
AcDbEntity
  8
0
  6
CONTINUOUS
 62
             2
100
AcDbLine
 10
107.88404025686461
 20
114.1200576131687
 11
107.88404025686461
 21
121.272589193058
  0
SOLID
  5
6B
100
AcDbEntity
  8
0
 62
             2
100
AcDbTrace
 10
11.38404025686459
 20
119.73337293461388
 11
11.38404025686459
 21
118.81180545150211
 12
7.88404025686459
 22
119.272589193058
 13
7.88404025686459
 23
119.272589193058
  0
SOLID
  5
6C
100
AcDbEntity
  8
0
 62
             2
100
AcDbTrace
 10
104.38404025686461
 20
118.81180545150211
 11
104.38404025686461
 21
119.73337293461388
 12
107.88404025686461
 22
119.272589193058
 13
107.88404025686461
 23
119.272589193058
  0
MTEXT
  5
6D
100
AcDbEntity
  8
0
 62
             2
100
AcDbMText
 10
53.9998011264298
 20
117.522589193058
 30
0.0
 40
3.5
 41
0.0
 71
             7
 72
             1
  1
100
  7
CONVERTER_1
 11
0.99999999999706
 21
0.00000242406841
 31
0.0
  0
ENDBLK
  5
6E
100
AcDbEntity
  8
0
100
AcDbBlockEnd
  0
BLOCK
  5
72
100
AcDbEntity
  8
0
100
AcDbBlockBegin
  2
*D11
 70
             1
 10
0.0
 20
0.0
 30
0.0
  3
*D11
  1

  0
LINE
  5
73
100
AcDbEntity
  8
0
  6
CONTINUOUS
 62
             2
100
AcDbLine
 10
107.88404025686459
 20
94.1200576131687
 11
127.58676022970722
 21
114.79849536041256
  0
SOLID
  5
74
100
AcDbEntity
  8
0
 62
             2
100
AcDbTrace
 10
123.76120757920248
 20
111.45147069678562
 11
124.42840499859784
 21
110.81575517119171
 12
121.68043687987358
 22
108.59967916280272
 13
121.68043687987358
 23
108.59967916280272
  0
MTEXT
  5
75
100
AcDbEntity
  8
0
 62
             2
100
AcDbMText
 10
131.1508271530312
 20
116.00216764391332
 30
0.0
 40
3.5
 41
0.0
 71
             7
 72
             1
  1
\C2;R\C2;20
  7
CONVERTER_1
 11
0.68981983115045
 21
0.7239810774817
 31
0.0
  0
ENDBLK
  5
76
100
AcDbEntity
  8
0
100
AcDbBlockEnd
  0
BLOCK
  5
85
100
AcDbEntity
  8
0
100
AcDbBlockBegin
  2
*D12
 70
             1
 10
0.0
 20
0.0
 30
0.0
  3
*D12
  1

  0
LINE
  5
86
100
AcDbEntity
  8
0
  6
CONTINUOUS
 62
             2
100
AcDbLine
 10
68.54946275396449
 20
-110.21286689202
 11
81.90360284228001
 21
-110.21286689202
  0
LINE
  5
87
100
AcDbEntity
  8
0
  6
CONTINUOUS
 62
             2
100
AcDbLine
 10
41.90360284227999
 20
-110.21286689202
 11
59.2994627539645
 21
-110.21286689202
  0
LINE
  5
88
100
AcDbEntity
  8
0
  6
CONTINUOUS
 62
             2
100
AcDbLine
 10
81.90360284228001
 20
-76.0
 11
81.90360284228001
 21
-112.21286689202
  0
LINE
  5
89
100
AcDbEntity
  8
0
  6
CONTINUOUS
 62
             2
100
AcDbLine
 10
41.90360284227999
 20
-76.0
 11
41.90360284227999
 21
-112.21286689202
  0
SOLID
  5
8A
100
AcDbEntity
  8
0
 62
             2
100
AcDbTrace
 10
45.40360284227999
 20
-109.75208315046412
 11
45.40360284227999
 21
-110.67365063357589
 12
41.90360284227999
 22
-110.21286689202
 13
41.90360284227999
 23
-110.21286689202
  0
SOLID
  5
8B
100
AcDbEntity
  8
0
 62
             2
100
AcDbTrace
 10
78.40360284228001
 20
-110.67365063357589
 11
78.40360284228001
 21
-109.75208315046412
 12
81.90360284228001
 22
-110.21286689202
 13
81.90360284228001
 23
-110.21286689202
  0
MTEXT
  5
8C
100
AcDbEntity
  8
0
 62
             2
100
AcDbMText
 10
61.2994627539645
 20
-111.96286689202
 30
0.0
 40
3.5
 41
0.0
 71
             7
 72
             1
  1
40
  7
CONVERTER_1
 11
0.99999999999706
 21
0.00000242406841
 31
0.0
  0
ENDBLK
  5
8D
100
AcDbEntity
  8
0
100
AcDbBlockEnd
  0
BLOCK
  5
91
100
AcDbEntity
  8
0
100
AcDbBlockBegin
  2
*D13
 70
             1
 10
0.0
 20
0.0
 30
0.0
  3
*D13
  1

  0
LINE
  5
92
100
AcDbEntity
  8
0
  6
CONTINUOUS
 62
             2
100
AcDbLine
 10
91.28985363129225
 20
-79.449390689059
 11
98.3653473053314
 21
-82.04959204190341
  0
SOLID
  5
93
100
AcDbEntity
  8
0
 62
             2
100
AcDbTrace
 10
94.7339837222258
 20
-80.22417425445536
 11
94.41609909266727
 21
-81.08918060600395
 12
91.28985363129225
 22
-79.449390689059
 13
91.28985363129225
 23
-79.449390689059
  0
MTEXT
  5
94
100
AcDbEntity
  8
0
 62
             2
100
AcDbMText
 10
100.88732544748714
 20
-84.84083302943721
 30
0.0
 40
3.5
 41
0.0
 71
             7
 72
             1
  1
\C2;R\C2;10
  7
CONVERTER_1
 11
0.93862507890122
 21
-0.3449390689059
 31
0.0
  0
ENDBLK
  5
95
100
AcDbEntity
  8
0
100
AcDbBlockEnd
  0
BLOCK
  5
98
100
AcDbEntity
  8
0
100
AcDbBlockBegin
  2
*D14
 70
             1
 10
0.0
 20
0.0
 30
0.0
  3
*D14
  1

  0
LINE
  5
99
100
AcDbEntity
  8
0
  6
CONTINUOUS
 62
             2
100
AcDbLine
 10
56.0796595822635
 20
-80.90300064295003
 11
62.29125160772095
 21
-83.05137238363739
  0
SOLID
  5
9A
100
AcDbEntity
  8
0
 62
             2
100
AcDbTrace
 10
59.53802102033361
 20
-81.61156102862785
 11
59.23679128951901
 21
-82.48250722398227
 12
56.0796595822635
 22
-80.90300064295003
 13
56.0796595822635
 23
-80.90300064295003
  0
MTEXT
  5
9B
100
AcDbEntity
  8
0
 62
             2
100
AcDbMText
 10
64.86631946231978
 20
-85.79371181270371
 30
0.0
 40
3.5
 41
0.0
 71
             7
 72
             1
  1
\C2;R\C2;15
  7
CONVERTER_1
 11
0.94507044933223
 21
-0.32686670953
 31
0.0
  0
ENDBLK
  5
9C
100
AcDbEntity
  8
0
100
AcDbBlockEnd
  0
BLOCK
  5
9F
100
AcDbEntity
  8
0
100
AcDbBlockBegin
  2
*D15
 70
             1
 10
0.0
 20
0.0
 30
0.0
  3
*D15
  1

  0
LINE
  5
A0
100
AcDbEntity
  8
0
  6
CONTINUOUS
 62
             2
100
AcDbLine
 10
77.21903857095887
 20
-74.25218491027755
 11
72.30849080783898
 21
-72.42005517908203
  0
SOLID
  5
A1
100
AcDbEntity
  8
0
 62
             2
100
AcDbTrace
 10
73.77877062571605
 20
-73.4604285579715
 11
74.10091653635212
 21
-72.59700013697216
 12
77.21903857095887
 22
-74.25218491027755
 13
77.21903857095887
 23
-74.25218491027755
  0
MTEXT
  5
A2
100
AcDbEntity
  8
0
 62
             2
100
AcDbMText
 10
65.16647293221446
 20
-71.62319843897133
 30
0.0
 40
3.5
 41
0.0
 71
             7
 72
             1
  1
\C2;R\C2;5
  7
CONVERTER_1
 11
0.93691285426423
 21
-0.34956301794449
 31
0.0
  0
ENDBLK
  5
A3
100
AcDbEntity
  8
0
100
AcDbBlockEnd
  0
BLOCK
  5
A6
100
AcDbEntity
  8
0
100
AcDbBlockBegin
  2
*D16
 70
             1
 10
0.0
 20
0.0
 30
0.0
  3
*D16
  1

  0
LINE
  5
A7
100
AcDbEntity
  8
0
  6
CONTINUOUS
 62
             2
100
AcDbLine
 10
45.34597809537043
 20
-50.22889112558579
 11
46.12917659638294
 21
-44.36552866335826
  0
SOLID
  5
A8
100
AcDbEntity
  8
0
 62
             2
100
AcDbTrace
 10
45.35264753439427
 20
-46.69869606368548
 11
46.26610199371709
 21
-46.82071072129767
 12
45.34597809537043
 22
-50.22889112558579
 13
45.34597809537043
 23
-50.22889112558579
  0
MTEXT
  5
A9
100
AcDbEntity
  8
0
 62
             2
100
AcDbMText
 10
48.30465929342201
 20
-41.29654266878551
 30
0.0
 40
3.5
 41
0.0
 71
             7
 72
             1
  1
\C2;R\C2;26
  7
CONVERTER_1
 11
0.13239904819579
 21
0.99119649516978
 31
0.0
  0
ENDBLK
  5
AA
100
AcDbEntity
  8
0
100
AcDbBlockEnd
  0
BLOCK
  5
B4
100
AcDbEntity
  8
0
100
AcDbBlockBegin
  2
*D17
 70
             1
 10
0.0
 20
0.0
 30
0.0
  3
*D17
  1

  0
LINE
  5
B5
100
AcDbEntity
  8
0
  6
CONTINUOUS
 62
             2
100
AcDbLine
 10
-12.11595974313541
 20
-16.287071385329
 11
43.3523631377378
 21
-16.287071385329
  0
LINE
  5
B6
100
AcDbEntity
  8
0
  6
CONTINUOUS
 62
             2
100
AcDbLine
 10
67.93236313773781
 20
-16.287071385329
 11
127.88404025686459
 21
-16.287071385329
  0
LINE
  5
B7
100
AcDbEntity
  8
0
  6
CONTINUOUS
 62
             2
100
AcDbLine
 10
-12.11595974313541
 20
12.1200576131687
 11
-12.11595974313541
 21
-18.287071385329
  0
LINE
  5
B8
100
AcDbEntity
  8
0
  6
CONTINUOUS
 62
             2
100
AcDbLine
 10
127.88404025686459
 20
12.1200576131687
 11
127.88404025686459
 21
-18.287071385329
  0
LINE
  5
B9
100
AcDbEntity
  8
0
  6
CONTINUOUS
 62
             2
100
AcDbLine
 10
45.3523631377378
 20
-16.287071385329
 11
65.93236313773781
 21
-16.287071385329
  0
LINE
  5
BA
100
AcDbEntity
  8
0
 62
             2
100
AcDbLine
 10
127.88404025686459
 20
-16.287071385329
 11
124.38404025686459
 21
-17.22489355883793
  0
LINE
  5
BB
100
AcDbEntity
  8
0
 62
             2
100
AcDbLine
 10
127.88404025686459
 20
-16.287071385329
 11
124.38404025686459
 21
-15.34924921182007
  0
LINE
  5
BC
100
AcDbEntity
  8
0
 62
             2
100
AcDbLine
 10
-12.11595974313541
 20
-16.287071385329
 11
-8.61595974313541
 21
-15.34924921182007
  0
LINE
  5
BD
100
AcDbEntity
  8
0
 62
             2
100
AcDbLine
 10
-12.11595974313541
 20
-16.287071385329
 11
-8.61595974313541
 21
-17.22489355883793
  0
MTEXT
  5
BE
100
AcDbEntity
  8
0
 62
             2
100
AcDbMText
 10
48.7561131377378
 20
-14.537071385329
 30
0.0
 40
3.5
 41
0.0
 71
             7
 72
             1
  1
\C2;140\C2;\H2.100000;{\Fgdt;`}0.1
  7
CONVERTER_1
 11
0.99999999999706
 21
0.00000242406841
 31
0.0
  0
MTEXT
  5
BF
100
AcDbEntity
  8
0
 62
             2
100
AcDbMText
 10
45.3523631377378
 20
-21.537071385329
 30
0.0
 40
3.5
 41
0.0
 71
             7
 72
             1
  1
\C2;5.512\C2;\H2.100000;{\Fgdt;`}.004
  7
CONVERTER_1
 11
0.99999999999706
 21
0.00000242406841
 31
0.0
  0
ENDBLK
  5
C0
100
AcDbEntity
  8
0
100
AcDbBlockEnd
  0
BLOCK
  5
C2
100
AcDbEntity
  8
0
 62
             0
100
AcDbBlockBegin
  2
_OPEN30
 70
             0
 10
0.0
 20
0.0
 30
0.0
  3
_OPEN30
  1

  0
LINE
  5
C3
100
AcDbEntity
  8
0
 62
             0
100
AcDbLine
 10
-1.0
 20
0.267949
 11
0.0
 21
0.0
  0
LINE
  5
C4
100
AcDbEntity
  8
0
 62
             0
100
AcDbLine
 10
0.0
 20
0.0
 11
-1.0
 21
-0.267949
  0
LINE
  5
C5
100
AcDbEntity
  8
0
 62
             0
100
AcDbLine
 10
0.0
 20
0.0
 11
-1.0
 21
0.0
  0
ENDBLK
  5
C6
100
AcDbEntity
  8
0
 62
             0
100
AcDbBlockEnd
  0
BLOCK
  5
CA
100
AcDbEntity
  8
0
100
AcDbBlockBegin
  2
*D19
 70
             1
 10
0.0
 20
0.0
 30
0.0
  3
*D19
  1

  0
LINE
  5
CB
100
AcDbEntity
  8
0
  6
CONTINUOUS
 62
             2
100
AcDbLine
 10
107.88404025686454
 20
12.12005761316871
 11
129.50417281137405
 21
33.74019016767822
  0
SOLID
  5
CC
100
AcDbEntity
  8
0
 62
             2
100
AcDbTrace
 10
124.17522630643374
 20
29.06289027936724
 11
124.82687292306309
 21
28.41124366273788
 12
122.02617588059549
 22
26.26219323689965
 13
122.02617588059549
 23
26.26219323689965
  0
MTEXT
  5
CD
100
AcDbEntity
  8
0
 62
             2
100
AcDbMText
 10
133.09627525980173
 20
34.85741888195296
 30
0.0
 40
3.5
 41
0.0
 71
             7
 72
             1
  1
\C2;R\C2;20
  7
CONVERTER_1
 11
0.70710678118655
 21
0.70710678118655
 31
0.0
  0
ENDBLK
  5
CE
100
AcDbEntity
  8
0
100
AcDbBlockEnd
  0
BLOCK
  5
DE
100
AcDbEntity
  8
0
100
AcDbBlockBegin
  2
*D20
 70
             1
 10
0.0
 20
0.0
 30
0.0
  3
*D20
  1

  0
LINE
  5
DF
100
AcDbEntity
  8
0
  6
CONTINUOUS
 62
             2
100
AcDbLine
 10
236.38082154749199
 20
116.39933973469201
 11
236.38082154749199
 21
125.00767664043499
  0
LINE
  5
E0
100
AcDbEntity
  8
0
  6
CONTINUOUS
 62
             2
100
AcDbLine
 10
236.38082154749199
 20
134.25767664043499
 11
236.38082154749199
 21
141.39933973469201
  0
LINE
  5
E1
100
AcDbEntity
  8
0
  6
CONTINUOUS
 62
             2
100
AcDbLine
 10
236.92813139762799
 20
116.39933973469201
 11
234.38082154749199
 21
116.39933973469201
  0
LINE
  5
E2
100
AcDbEntity
  8
0
  6
CONTINUOUS
 62
             2
100
AcDbLine
 10
236.92813139762799
 20
141.39933973469201
 11
234.38082154749199
 21
141.39933973469201
  0
SOLID
  5
E3
100
AcDbEntity
  8
0
 62
             2
100
AcDbTrace
 10
236.84160528904786
 20
137.89933973469201
 11
235.92003780593612
 21
137.89933973469201
 12
236.38082154749199
 22
141.39933973469201
 13
236.38082154749199
 23
141.39933973469201
  0
SOLID
  5
E4
100
AcDbEntity
  8
0
 62
             2
100
AcDbTrace
 10
235.92003780593612
 20
119.89933973469201
 11
236.84160528904786
 21
119.89933973469201
 12
236.38082154749199
 22
116.39933973469201
 13
236.38082154749199
 23
116.39933973469201
  0
MTEXT
  5
E5
100
AcDbEntity
  8
0
 62
             2
100
AcDbMText
 10
238.13082154749199
 20
127.00767664043499
 30
0.0
 40
3.5
 41
0.0
 71
             7
 72
             1
  1
25
  7
CONVERTER_1
 11
0.0
 21
1.0
 31
0.0
  0
ENDBLK
  5
E6
100
AcDbEntity
  8
0
100
AcDbBlockEnd
  0
BLOCK
  5
EA
100
AcDbEntity
  8
0
100
AcDbBlockBegin
  2
*D21
 70
             1
 10
0.0
 20
0.0
 30
0.0
  3
*D21
  1

  0
LINE
  5
EB
100
AcDbEntity
  8
0
  6
CONTINUOUS
 62
             2
100
AcDbLine
 10
231.92813139762799
 20
94.65053952466531
 11
264.21147098267801
 21
94.65053952466531
  0
LINE
  5
EC
100
AcDbEntity
  8
0
  6
CONTINUOUS
 62
             2
100
AcDbLine
 10
273.46147098267801
 20
94.65053952466531
 11
306.92813139762802
 21
94.65053952466531
  0
LINE
  5
ED
100
AcDbEntity
  8
0
  6
CONTINUOUS
 62
             2
100
AcDbLine
 10
231.92813139762799
 20
111.39933973469201
 11
231.92813139762799
 21
92.65053952466531
  0
LINE
  5
EE
100
AcDbEntity
  8
0
  6
CONTINUOUS
 62
             2
100
AcDbLine
 10
306.92813139762802
 20
121.39933973469201
 11
306.92813139762802
 21
92.65053952466531
  0
SOLID
  5
EF
100
AcDbEntity
  8
0
 62
             2
100
AcDbTrace
 10
303.42813139762802
 20
94.18975578310942
 11
303.42813139762802
 21
95.11132326622119
 12
306.92813139762802
 22
94.65053952466531
 13
306.92813139762802
 23
94.65053952466531
  0
SOLID
  5
F0
100
AcDbEntity
  8
0
 62
             2
100
AcDbTrace
 10
235.42813139762799
 20
95.11132326622119
 11
235.42813139762799
 21
94.18975578310942
 12
231.92813139762799
 22
94.65053952466531
 13
231.92813139762799
 23
94.65053952466531
  0
MTEXT
  5
F1
100
AcDbEntity
  8
0
 62
             2
100
AcDbMText
 10
266.21147098267801
 20
92.90053952466531
 30
0.0
 40
3.5
 41
0.0
 71
             7
 72
             1
  1
75
  7
CONVERTER_1
 11
0.99999999999706
 21
0.00000242406841
 31
0.0
  0
ENDBLK
  5
F2
100
AcDbEntity
  8
0
100
AcDbBlockEnd
  0
BLOCK
  5
F6
100
AcDbEntity
  8
0
100
AcDbBlockBegin
  2
*D22
 70
             1
 10
0.0
 20
0.0
 30
0.0
  3
*D22
  1

  0
LINE
  5
F7
100
AcDbEntity
  8
0
  6
CONTINUOUS
 62
             2
100
AcDbLine
 10
236.92813139762799
 20
146.39933973469201
 11
226.25086614430384
 21
156.91911981990367
  0
SOLID
  5
F8
100
AcDbEntity
  8
0
 62
             2
100
AcDbTrace
 10
230.54984240285413
 20
152.03669293948843
 11
231.19662970742044
 21
152.69316289963953
 12
233.3664282549864
 22
149.90850925520493
 13
233.3664282549864
 23
149.90850925520493
  0
MTEXT
  5
F9
100
AcDbEntity
  8
0
 62
             2
100
AcDbMText
 10
220.05764263128194
 20
160.56430603157415
 30
0.0
 40
3.5
 41
0.0
 71
             7
 72
             1
  1
\C2;R\C2;5
  7
CONVERTER_1
 11
0.71234062852832
 21
-0.70183390410259
 31
0.0
  0
ENDBLK
  5
FA
100
AcDbEntity
  8
0
100
AcDbBlockEnd
  0
BLOCK
  5
FD
100
AcDbEntity
  8
0
100
AcDbBlockBegin
  2
*D23
 70
             1
 10
0.0
 20
0.0
 30
0.0
  3
*D23
  1

  0
LINE
  5
FE
100
AcDbEntity
  8
0
  6
CONTINUOUS
 62
             2
100
AcDbLine
 10
304.31848214129798
 20
153.78969047836199
 11
310.03989461144891
 21
148.06827800821108
  0
SOLID
  5
FF
100
AcDbEntity
  8
0
 62
             2
100
AcDbTrace
 10
307.1191791837656
 20
151.64064005252374
 11
306.46753256713623
 21
150.9889934358944
 12
304.31848214129798
 22
153.78969047836199
 13
304.31848214129798
 23
153.78969047836199
  0
MTEXT
  5
100
100
AcDbEntity
  8
0
 62
             2
100
AcDbMText
 10
310.90963595230835
 20
144.72366293319871
 30
0.0
 40
3.5
 41
0.0
 71
             7
 72
             1
  1
\C2;C\C2;5
  7
CONVERTER_1
 11
0.70710678118655
 21
-0.70710678118655
 31
0.0
  0
ENDBLK
  5
101
100
AcDbEntity
  8
0
100
AcDbBlockEnd
  0
BLOCK
  5
10F
100
AcDbEntity
  8
0
100
AcDbBlockBegin
  2
*D24
 70
             1
 10
0.0
 20
0.0
 30
0.0
  3
*D24
  1

  0
LINE
  5
110
100
AcDbEntity
  8
0
  6
CONTINUOUS
 62
             2
100
AcDbLine
 10
318.64844804129098
 20
-27.3452746069647
 11
318.64844804129098
 21
-17.16598204407421
  0
LINE
  5
111
100
AcDbEntity
  8
0
  6
CONTINUOUS
 62
             2
100
AcDbLine
 10
318.64844804129098
 20
0.39651795592579
 11
318.64844804129098
 21
7.6547253930353
  0
LINE
  5
112
100
AcDbEntity
  8
0
  6
CONTINUOUS
 62
             2
100
AcDbLine
 10
306.24792317593199
 20
-27.3452746069647
 11
320.64844804129098
 21
-27.3452746069647
  0
LINE
  5
113
100
AcDbEntity
  8
0
  6
CONTINUOUS
 62
             2
100
AcDbLine
 10
306.24792317593199
 20
7.6547253930353
 11
320.64844804129098
 21
7.6547253930353
  0
SOLID
  5
114
100
AcDbEntity
  8
0
 62
             2
100
AcDbTrace
 10
319.10923178284685
 20
4.1547253930353
 11
318.1876642997351
 21
4.1547253930353
 12
318.64844804129098
 22
7.6547253930353
 13
318.64844804129098
 23
7.6547253930353
  0
SOLID
  5
115
100
AcDbEntity
  8
0
 62
             2
100
AcDbTrace
 10
318.1876642997351
 20
-23.8452746069647
 11
319.10923178284685
 21
-23.8452746069647
 12
318.64844804129098
 22
-27.3452746069647
 13
318.64844804129098
 23
-27.3452746069647
  0
MTEXT
  5
116
100
AcDbEntity
  8
0
 62
             2
100
AcDbMText
 10
320.39844804129098
 20
-15.16598204407421
 30
0.0
 40
3.5
 41
0.0
 71
             7
 72
             1
  1
\C2;35\C2;\H2.100000;{\Fgdt;`}0.01
  7
CONVERTER_1
 11
0.0
 21
1.0
 31
0.0
  0
ENDBLK
  5
117
100
AcDbEntity
  8
0
100
AcDbBlockEnd
  0
BLOCK
  5
11B
100
AcDbEntity
  8
0
100
AcDbBlockBegin
  2
*D25
 70
             1
 10
0.0
 20
0.0
 30
0.0
  3
*D25
  1

  0
LINE
  5
11C
100
AcDbEntity
  8
0
  6
CONTINUOUS
 62
             2
100
AcDbLine
 10
311.19431056935099
 20
-22.3452746069647
 11
311.19431056935099
 21
-14.12228987570703
  0
LINE
  5
11D
100
AcDbEntity
  8
0
  6
CONTINUOUS
 62
             2
100
AcDbLine
 10
311.19431056935099
 20
-4.87228987570703
 11
311.19431056935099
 21
2.6547253930353
  0
LINE
  5
11E
100
AcDbEntity
  8
0
  6
CONTINUOUS
 62
             2
100
AcDbLine
 10
306.24792317593199
 20
-22.3452746069647
 11
313.19431056935099
 21
-22.3452746069647
  0
LINE
  5
11F
100
AcDbEntity
  8
0
  6
CONTINUOUS
 62
             2
100
AcDbLine
 10
306.24792317593199
 20
2.6547253930353
 11
313.19431056935099
 21
2.6547253930353
  0
SOLID
  5
120
100
AcDbEntity
  8
0
 62
             2
100
AcDbTrace
 10
310.73352682779512
 20
-18.8452746069647
 11
311.65509431090686
 21
-18.8452746069647
 12
311.19431056935099
 22
-22.3452746069647
 13
311.19431056935099
 23
-22.3452746069647
  0
SOLID
  5
121
100
AcDbEntity
  8
0
 62
             2
100
AcDbTrace
 10
311.65509431090686
 20
-0.8452746069647
 11
310.73352682779512
 21
-0.8452746069647
 12
311.19431056935099
 22
2.6547253930353
 13
311.19431056935099
 23
2.6547253930353
  0
MTEXT
  5
122
100
AcDbEntity
  8
0
 62
             2
100
AcDbMText
 10
312.94431056935099
 20
-12.12228987570703
 30
0.0
 40
3.5
 41
0.0
 71
             7
 72
             1
  1
25
  7
CONVERTER_1
 11
0.0
 21
1.0
 31
0.0
  0
ENDBLK
  5
123
100
AcDbEntity
  8
0
100
AcDbBlockEnd
  0
BLOCK
  5
127
100
AcDbEntity
  8
0
100
AcDbBlockBegin
  2
*D26
 70
             1
 10
0.0
 20
0.0
 30
0.0
  3
*D26
  1

  0
LINE
  5
128
100
AcDbEntity
  8
0
  6
CONTINUOUS
 62
             2
100
AcDbLine
 10
294.62359528589303
 20
13.8737267091159
 11
306.24792317593199
 21
13.8737267091159
  0
LINE
  5
129
100
AcDbEntity
  8
0
  6
CONTINUOUS
 62
             2
100
AcDbLine
 10
266.24792317593199
 20
13.8737267091159
 11
278.95109528589302
 21
13.8737267091159
  0
LINE
  5
12A
100
AcDbEntity
  8
0
  6
CONTINUOUS
 62
             2
100
AcDbLine
 10
306.24792317593199
 20
7.6547253930353
 11
306.24792317593199
 21
15.8737267091159
  0
LINE
  5
12B
100
AcDbEntity
  8
0
  6
CONTINUOUS
 62
             2
100
AcDbLine
 10
266.24792317593199
 20
7.6547253930353
 11
266.24792317593199
 21
15.8737267091159
  0
SOLID
  5
12C
100
AcDbEntity
  8
0
 62
             2
100
AcDbTrace
 10
302.74792317593199
 20
13.41294296756002
 11
302.74792317593199
 21
14.33451045067179
 12
306.24792317593199
 22
13.8737267091159
 13
306.24792317593199
 23
13.8737267091159
  0
SOLID
  5
12D
100
AcDbEntity
  8
0
 62
             2
100
AcDbTrace
 10
269.74792317593199
 20
14.33451045067179
 11
269.74792317593199
 21
13.41294296756001
 12
266.24792317593199
 22
13.8737267091159
 13
266.24792317593199
 23
13.8737267091159
  0
MTEXT
  5
12E
100
AcDbEntity
  8
0
 62
             2
100
AcDbMText
 10
280.95109528589302
 20
12.1237267091159
 30
0.0
 40
3.5
 41
0.0
 71
             7
 72
             1
  1
\C2;40\C2;\H2.100000;{\Fgdt;`}0.1
  7
CONVERTER_1
 11
0.99999999999706
 21
0.00000242406841
 31
0.0
  0
ENDBLK
  5
12F
100
AcDbEntity
  8
0
100
AcDbBlockEnd
  0
BLOCK
  5
133
100
AcDbEntity
  8
0
100
AcDbBlockBegin
  2
*D27
 70
             1
 10
0.0
 20
0.0
 30
0.0
  3
*D27
  1

  0
LINE
  5
134
100
AcDbEntity
  8
0
  6
CONTINUOUS
 62
             2
100
AcDbLine
 10
280.87292317593199
 20
21.8737267091159
 11
306.24792317593199
 21
21.8737267091159
  0
LINE
  5
135
100
AcDbEntity
  8
0
  6
CONTINUOUS
 62
             2
100
AcDbLine
 10
246.24792317593199
 20
21.8737267091159
 11
271.62292317593199
 21
21.8737267091159
  0
LINE
  5
136
100
AcDbEntity
  8
0
  6
CONTINUOUS
 62
             2
100
AcDbLine
 10
306.24792317593199
 20
7.6547253930353
 11
306.24792317593199
 21
23.8737267091159
  0
LINE
  5
137
100
AcDbEntity
  8
0
  6
CONTINUOUS
 62
             2
100
AcDbLine
 10
246.24792317593199
 20
2.6547253930353
 11
246.24792317593199
 21
23.8737267091159
  0
SOLID
  5
138
100
AcDbEntity
  8
0
 62
             2
100
AcDbTrace
 10
302.74792317593199
 20
21.41294296756001
 11
302.74792317593199
 21
22.33451045067179
 12
306.24792317593199
 22
21.8737267091159
 13
306.24792317593199
 23
21.8737267091159
  0
SOLID
  5
139
100
AcDbEntity
  8
0
 62
             2
100
AcDbTrace
 10
249.74792317593199
 20
22.33451045067179
 11
249.74792317593199
 21
21.41294296756001
 12
246.24792317593199
 22
21.8737267091159
 13
246.24792317593199
 23
21.8737267091159
  0
MTEXT
  5
13A
100
AcDbEntity
  8
0
 62
             2
100
AcDbMText
 10
273.62292317593199
 20
20.1237267091159
 30
0.0
 40
3.5
 41
0.0
 71
             7
 72
             1
  1
60
  7
CONVERTER_1
 11
0.99999999999706
 21
0.00000242406841
 31
0.0
  0
ENDBLK
  5
13B
100
AcDbEntity
  8
0
100
AcDbBlockEnd
  0
BLOCK
  5
13F
100
AcDbEntity
  8
0
100
AcDbBlockBegin
  2
*D28
 70
             1
 10
0.0
 20
0.0
 30
0.0
  3
*D28
  1

  0
ARC
  5
140
100
AcDbEntity
  8
0
  6
CONTINUOUS
 62
             2
100
AcDbCircle
 10
233.74792317593199
 20
-9.8452746069647
 40
15.45737209905414
100
AcDbArc
 50
22.13865783123158
 51
44.99999999999997
  0
ARC
  5
141
100
AcDbEntity
  8
0
  6
CONTINUOUS
 62
             2
100
AcDbCircle
 10
233.74792317593199
 20
-9.8452746069647
 40
15.45737209905415
100
AcDbArc
 50
-44.99999999999996
 51
-21.53334652215767
  0
SOLID
  5
142
100
AcDbEntity
  8
0
 62
             2
100
AcDbTrace
 10
246.49682533494385
 20
-17.74973562835347
 11
247.21791855558592
 21
-18.32359205035553
 12
244.67793580649692
 22
-20.77528723752962
 13
244.67793580649692
 23
-20.77528723752962
  0
SOLID
  5
143
100
AcDbEntity
  8
0
 62
             2
100
AcDbTrace
 10
247.21791855558592
 20
-1.36695716357386
 11
246.49682533494385
 21
-1.94081358557593
 12
244.67793580649692
 22
1.08473802360022
 13
244.67793580649692
 23
1.08473802360022
  0
MTEXT
  5
144
100
AcDbEntity
  8
0
 62
             2
100
AcDbMText
 10
247.04258831429541
 20
-5.92499332920992
 30
0.0
 40
3.5
 41
0.0
 71
             7
 72
             1
  1
90{\Fgdt;~}
  7
CONVERTER_1
 11
0.00528231310589
 21
-0.9999860484868
 31
0.0
  0
ENDBLK
  5
145
100
AcDbEntity
  8
0
100
AcDbBlockEnd
  0
BLOCK
  5
150
100
AcDbEntity
  8
0
100
AcDbBlockBegin
  2
*D29
 70
             1
 10
0.0
 20
0.0
 30
0.0
  3
*D29
  1

  0
LINE
  5
151
100
AcDbEntity
  8
0
  6
CONTINUOUS
 62
             2
100
AcDbLine
 10
411.69471532934415
 20
760.180536371313
 11
413.54495694087501
 21
760.180536371313
  0
LINE
  5
152
100
AcDbEntity
  8
0
  6
CONTINUOUS
 62
             2
100
AcDbLine
 10
419.78495694087502
 20
760.180536371313
 11
421.69471532934415
 21
760.180536371313
  0
LINE
  5
153
100
AcDbEntity
  8
0
  6
CONTINUOUS
 62
             2
100
AcDbLine
 10
411.69471532934415
 20
759.26676960914403
 11
411.69471532934415
 21
762.58053637131297
  0
LINE
  5
154
100
AcDbEntity
  8
0
  6
CONTINUOUS
 62
             2
100
AcDbLine
 10
421.69471532934415
 20
759.26676960914403
 11
421.69471532934415
 21
762.58053637131297
  0
SOLID
  5
155
100
AcDbEntity
  8
0
 62
             2
100
AcDbTrace
 10
412.89471532934414
 20
760.33851936841791
 11
412.89471532934414
 21
760.02255337420809
 12
411.69471532934415
 22
760.180536371313
 13
411.69471532934415
 23
760.180536371313
  0
SOLID
  5
156
100
AcDbEntity
  8
0
 62
             2
100
AcDbTrace
 10
420.49471532934416
 20
760.02255337420809
 11
420.49471532934416
 21
760.33851936841791
 12
421.69471532934415
 22
760.180536371313
 13
421.69471532934415
 23
760.180536371313
  0
MTEXT
  5
157
100
AcDbEntity
  8
0
 62
             2
100
AcDbMText
 10
415.94495694087499
 20
759.58053637131297
 30
0.0
 40
1.2
 41
0.0
 71
             7
 72
             1
  1
10
  7
CONVERTER_1
 11
0.99999999999706
 21
0.00000242406841
 31
0.0
  0
ENDBLK
  5
158
100
AcDbEntity
  8
0
100
AcDbBlockEnd
  0
BLOCK
  5
15C
100
AcDbEntity
  8
0
100
AcDbBlockBegin
  2
*D30
 70
             1
 10
0.0
 20
0.0
 30
0.0
  3
*D30
  1

  0
LINE
  5
15D
100
AcDbEntity
  8
0
  6
CONTINUOUS
 62
             2
100
AcDbLine
 10
423.72458448104601
 20
759.26676960914403
 11
423.72458448104601
 21
761.12375175411091
  0
LINE
  5
15E
100
AcDbEntity
  8
0
  6
CONTINUOUS
 62
             2
100
AcDbLine
 10
423.72458448104601
 20
767.12375175411091
 11
423.72458448104601
 21
768.86676960914394
  0
LINE
  5
15F
100
AcDbEntity
  8
0
  6
CONTINUOUS
 62
             2
100
AcDbLine
 10
421.69471532934409
 20
759.26676960914403
 11
426.12458448104599
 21
759.26676960914403
  0
LINE
  5
160
100
AcDbEntity
  8
0
  6
CONTINUOUS
 62
             2
100
AcDbLine
 10
421.69471532934409
 20
768.86676960914394
 11
426.12458448104599
 21
768.86676960914394
  0
SOLID
  5
161
100
AcDbEntity
  8
0
 62
             2
100
AcDbTrace
 10
423.56660148394116
 20
760.46676960914408
 11
423.88256747815086
 21
760.46676960914408
 12
423.72458448104601
 22
759.26676960914403
 13
423.72458448104601
 23
759.26676960914403
  0
SOLID
  5
162
100
AcDbEntity
  8
0
 62
             2
100
AcDbTrace
 10
423.88256747815086
 20
767.6667696091439
 11
423.56660148394116
 21
767.6667696091439
 12
423.72458448104601
 22
768.86676960914394
 13
423.72458448104601
 23
768.86676960914394
  0
MTEXT
  5
163
100
AcDbEntity
  8
0
 62
             2
100
AcDbMText
 10
422.62958448104598
 20
763.52375175411089
 30
0.0
 40
1.2
 41
0.0
 71
             7
 72
             1
  1
9.6
  7
CONVERTER_1
 11
0.99999999999706
 21
0.00000242406841
 31
0.0
  0
ENDBLK
  5
164
100
AcDbEntity
  8
0
100
AcDbBlockEnd
  0
BLOCK
  5
168
100
AcDbEntity
  8
0
100
AcDbBlockBegin
  2
*D31
 70
             1
 10
0.0
 20
0.0
 30
0.0
  3
*D31
  1

  0
ARC
  5
169
100
AcDbEntity
  8
0
  6
CONTINUOUS
 62
             2
100
AcDbCircle
 10
408.92343403723402
 20
764.06676960914399
 40
4.84777701972965
100
AcDbArc
 50
-60.00000000000097
 51
-35.17533537913328
  0
ARC
  5
16A
100
AcDbEntity
  8
0
  6
CONTINUOUS
 62
             2
100
AcDbCircle
 10
408.92343403723402
 20
764.06676960914399
 40
4.84777701972962
100
AcDbArc
 50
35.77520209748611
 51
60.00000000000097
  0
SOLID
  5
16B
100
AcDbEntity
  8
0
 62
             2
100
AcDbTrace
 10
412.20925438609578
 20
760.71819629731033
 11
412.39980971646963
 21
760.46615825342997
 12
411.34732254709877
 22
759.86847155817566
 13
411.34732254709877
 23
759.86847155817566
  0
SOLID
  5
16C
100
AcDbEntity
  8
0
 62
             2
100
AcDbTrace
 10
412.39980971646963
 20
767.66738096485801
 11
412.20925438609578
 21
767.41534292097765
 12
411.34732254709877
 22
768.26506766011232
 13
411.34732254709877
 23
768.26506766011232
  0
MTEXT
  5
16D
100
AcDbEntity
  8
0
 62
             2
100
AcDbMText
 10
412.09114565188702
 20
763.49195163005595
 30
0.0
 40
1.2
 41
0.0
 71
             7
 72
             1
  1
120{\Fgdt;~}
  7
CONVERTER_1
 11
0.99999999999706
 21
0.00000242406841
 31
0.0
  0
ENDBLK
  5
16E
100
AcDbEntity
  8
0
100
AcDbBlockEnd
  0
ENDSEC
  0
SECTION
  2
ENTITIES
  0
INSERT
  5
35
100
AcDbEntity
  8
1
100
AcDbBlockReference
  2
KEYWAY_1
 10
-0.28695138669182
 20
-208.33333333333326
 41
0.83333333333333
 42
0.83333333333333
  0
INSERT
  5
36
100
AcDbEntity
  8
1
100
AcDbBlockReference
  2
OVAL_SLOT_1
 10
-0.94440478451239
 20
39.87889845801512
 41
0.83333333333333
 42
0.83333333333333
  0
INSERT
  5
37
100
AcDbEntity
  8
1
100
AcDbBlockReference
  2
FLANGE_1
 10
-6.74699763143333
 20
-93.51072241001664
 41
0.83333333333333
 42
0.83333333333333
  0
INSERT
  5
38
100
AcDbEntity
  8
1
100
AcDbBlockReference
  2
OVAL_SLOT_2
 10
-0.94440478451239
 20
-28.4544348753182
 41
0.83333333333333
 42
0.83333333333333
  0
INSERT
  5
39
100
AcDbEntity
  8
1
100
AcDbBlockReference
  2
TAB
 10
182.591857996116
 20
77.20878293722106
 41
0.83333333333333
 42
0.83333333333333
  0
INSERT
  5
3A
100
AcDbEntity
  8
1
100
AcDbBlockReference
  2
HOLE_1
 10
194.78993597994327
 20
-22.78772883913724
 41
0.83333333333333
 42
0.83333333333333
  0
INSERT
  5
3B
100
AcDbEntity
  8
1
100
AcDbBlockReference
  2
HOLE_2
 10
340.76952836436158
 20
632.72230800761986
 41
0.83333333333333
 42
0.83333333333333
  0
ENDSEC
  0
SECTION
  2
OBJECTS
  0
DICTIONARY
  5
19
100
AcDbDictionary
  3
ACAD_GROUP
350
1A
  3
ACAD_MLINESTYLE
350
1B
  0
DICTIONARY
  5
1A
102
{ACAD_REACTORS
330
19
102
}
100
AcDbDictionary
  0
DICTIONARY
  5
1B
102
{ACAD_REACTORS
330
19
102
}
100
AcDbDictionary
  3
STANDARD
350
1C
  0
MLINESTYLE
  5
1C
102
{ACAD_REACTORS
330
1B
102
}
100
AcDbMlineStyle
  2
STANDARD
 70
             0
  3

 62
             0
 51
90.0
 52
90.0
 71
             2
 49
0.5
 62
           256
  6
BYLAYER
 49
-0.5
 62
           256
  6
BYLAYER
  0
ENDSEC
  0
EOF
