  0
SECTION
  2
HEADER
  9
$ACADVER
  1
AC1014
  9
$ACADMAINTVER
 70
             0
  9
$DWGCODEPAGE
  3
ANSI_1252
  9
$INSBASE
 10
0.0
 20
0.0
 30
0.0
  9
$EXTMIN
 10
1.00000000000000E+20
 20
1.00000000000000E+20
 30
1.00000000000000E+20
  9
$EXTMAX
 10
-1.00000000000000E+20
 20
-1.00000000000000E+20
 30
-1.00000000000000E+20
  9
$LIMMIN
 10
0.0
 20
0.0
  9
$LIMMAX
 10
0.0
 20
0.0
  9
$ORTHOMODE
 70
             0
  9
$REGENMODE
 70
             1
  9
$FILLMODE
 70
             1
  9
$QTEXTMODE
 70
             0
  9
$MIRRTEXT
 70
             1
  9
$DRAGMODE
 70
             2
  9
$LTSCALE
 40
1.0
  9
$OSMODE
 70
             0
  9
$ATTMODE
 70
             1
  9
$TEXTSIZE
 40
0.2
  9
$TRACEWID
 40
0.05
  9
$TEXTSTYLE
  7
STANDARD
  9
$CLAYER
  8
0
  9
$CELTYPE
  6
CONTINUOUS
  9
$CECOLOR
 62
           256
  9
$CELTSCALE
 40
1.0
  9
$DELOBJ
 70
             1
  9
$DISPSILH
 70
             0
  9
$DIMSCALE
 40
1.0
  9
$DIMASZ
 40
0.18
  9
$DIMEXO
 40
0.0625
  9
$DIMDLI
 40
0.38
  9
$DIMRND
 40
0.0
  9
$DIMDLE
 40
0.0
  9
$DIMEXE
 40
0.18
  9
$DIMTP
 40
0.0
  9
$DIMTM
 40
0.0
  9
$DIMTXT
 40
0.18
  9
$DIMCEN
 40
0.09
  9
$DIMTSZ
 40
0.0
  9
$DIMTOL
 70
             0
  9
$DIMLIM
 70
             0
  9
$DIMTIH
 70
             1
  9
$DIMTOH
 70
             1
  9
$DIMSE1
 70
             0
  9
$DIMSE2
 70
             0
  9
$DIMTAD
 70
             0
  9
$DIMZIN
 70
             0
  9
$DIMBLK
  1

  9
$DIMASO
 70
             1
  9
$DIMSHO
 70
             1
  9
$DIMPOST
  1

  9
$DIMAPOST
  1

  9
$DIMALT
 70
             0
  9
$DIMALTD
 70
             2
  9
$DIMALTF
 40
25.4
  9
$DIMLFAC
 40
1.0
  9
$DIMTOFL
 70
             0
  9
$DIMTVP
 40
0.0
  9
$DIMTIX
 70
             0
  9
$DIMSOXD
 70
             0
  9
$DIMSAH
 70
             0
  9
$DIMBLK1
  1

  9
$DIMBLK2
  1

  9
$DIMSTYLE
  2
STANDARD
  9
$DIMCLRD
 70
             0
  9
$DIMCLRE
 70
             0
  9
$DIMCLRT
 70
             0
  9
$DIMTFAC
 40
1.0
  9
$DIMGAP
 40
0.09
  9
$DIMJUST
 70
             0
  9
$DIMSD1
 70
             0
  9
$DIMSD2
 70
             0
  9
$DIMTOLJ
 70
             1
  9
$DIMTZIN
 70
             0
  9
$DIMALTZ
 70
             0
  9
$DIMALTTZ
 70
             0
  9
$DIMFIT
 70
             3
  9
$DIMUPT
 70
             0
  9
$DIMUNIT
 70
             2
  9
$DIMDEC
 70
             4
  9
$DIMTDEC
 70
             4
  9
$DIMALTU
 70
             2
  9
$DIMALTTD
 70
             2
  9
$DIMTXSTY
  7
STANDARD
  9
$DIMAUNIT
 70
             0
  9
$LUNITS
 70
             2
  9
$LUPREC
 70
             4
  9
$SKETCHINC
 40
0.1
  9
$FILLETRAD
 40
0.0
  9
$AUNITS
 70
             0
  9
$AUPREC
 70
             0
  9
$MENU
  1
acad
  9
$ELEVATION
 40
0.0
  9
$PELEVATION
 40
0.0
  9
$THICKNESS
 40
0.0
  9
$LIMCHECK
 70
             0
  9
$BLIPMODE
 70
             1
  9
$CHAMFERA
 40
0.0
  9
$CHAMFERB
 40
0.0
  9
$CHAMFERC
 40
0.0
  9
$CHAMFERD
 40
0.0
  9
$SKPOLY
 70
             0
  9
$TDCREATE
 40
0.000000000
  9
$TDUPDATE
 40
0.000000000
  9
$TDINDWG
 40
0.0000000000
  9
$TDUSRTIMER
 40
0.0000000000
  9
$USRTIMER
 70
             1
  9
$ANGBASE
 50
0.0
  9
$ANGDIR
 70
             0
  9
$PDMODE
 70
             0
  9
$PDSIZE
 40
0.0
  9
$PLINEWID
 40
0.0
  9
$COORDS
 70
             0
  9
$SPLFRAME
 70
             0
  9
$SPLINETYPE
 70
             6
  9
$SPLINESEGS
 70
             8
  9
$ATTDIA
 70
             0
  9
$ATTREQ
 70
             1
  9
$HANDLING
 70
             1
  9
$HANDSEED
  5
104
  9
$SURFTAB1
 70
             6
  9
$SURFTAB2
 70
             6
  9
$SURFTYPE
 70
             6
  9
$SURFU
 70
             6
  9
$SURFV
 70
             6
  9
$UCSNAME
  2

  9
$UCSORG
 10
0.0
 20
0.0
 30
0.0
  9
$UCSXDIR
 10
1.0
 20
0.0
 30
0.0
  9
$UCSYDIR
 10
0.0
 20
1.0
 30
0.0
  9
$PUCSNAME
  2

  9
$PUCSORG
 10
0.0
 20
0.0
 30
0.0
  9
$PUCSXDIR
 10
1.0
 20
0.0
 30
0.0
  9
$PUCSYDIR
 10
0.0
 20
1.0
 30
0.0
  9
$USERI1
 70
             0
  9
$USERI2
 70
             0
  9
$USERI3
 70
             0
  9
$USERI4
 70
             0
  9
$USERI5
 70
             0
  9
$USERR1
 40
11.0
  9
$USERR2
 40
0.0
  9
$USERR3
 40
0.0
  9
$USERR4
 40
0.0
  9
$USERR5
 40
0.0
  9
$WORLDVIEW
 70
             1
  9
$SHADEDGE
 70
             3
  9
$SHADEDIF
 70
            70
  9
$TILEMODE
 70
             1
  9
$MAXACTVP
 70
            16
  9
$PINSBASE
 10
0.0
 20
0.0
 30
0.0
  9
$PLIMCHECK
 70
             0
  9
$PEXTMIN
 10
1.00000000000000E+20
 20
1.00000000000000E+20
 30
1.00000000000000E+20
  9
$PEXTMAX
 10
-1.00000000000000E+20
 20
-1.00000000000000E+20
 30
-1.00000000000000E+20
  9
$PLIMMIN
 10
0.0
 20
0.0
  9
$PLIMMAX
 10
12.0
 20
9.0
  9
$UNITMODE
 70
             0
  9
$VISRETAIN
 70
             0
  9
$PLINEGEN
 70
             1
  9
$PSLTSCALE
 70
             0
  9
$TREEDEPTH
 70
          3020
  9
$PICKSTYLE
 70
             1
  9
$CMLSTYLE
  2
STANDARD
  9
$CMLJUST
 70
             0
  9
$CMLSCALE
 40
1.0
  9
$PROXYGRAPHICS
 70
             0
  9
$MEASUREMENT
 70
             1
  0
ENDSEC
  0
SECTION
  2
CLASSES
  0
CLASS
  1
LWPOLYLINE
  2
AcDbPolyline
  3
"AutoCAD"
 90
        0
280
             0
281
             1
  0
CLASS
  1
IMAGE
  2
AcDbRasterImage
  3
ISM
 90
      127
280
             0
281
             1
  0
CLASS
  1
OLE2FRAME
  2
AcDbOle2Frame
  3
""
 90
        0
280
             0
281
             1
  0
CLASS
  1
HATCH
  2
AcDbHatch
  3
"ACAD_SEDONA"
 90
        0
280
             0
281
             1
  0
CLASS
  1
DICTIONARYVAR
  2
AcDbDictionaryVar
  3
"AutoCAD"
 90
        0
280
             0
281
             0
  0
CLASS
  1
RASTERVARIABLES
  2
AcDbRasterVariables
  3
ISM
 90
        0
280
             0
281
             0
  0
CLASS
  1
IMAGEDEF
  2
AcDbRasterImageDef
  3
ISM
 90
        0
280
             0
281
             0
  0
CLASS
  1
IMAGEDEF_REACTOR
  2
AcDbRasterImageDefReactor
  3
ISM
 90
        1
280
             0
281
             0
  0
CLASS
  1
IDBUFFER
  2
AcDbIdBuffer
  3
"Acad"
 90
        0
280
             0
281
             0
  0
CLASS
  1
SPATIAL_FILTER
  2
AcDbSpatialFilter
  3
"Acad"
 90
        0
280
             0
281
             0
  0
CLASS
  1
XRECORD
  2
AcDbXrecord
  3
"<Built In>"
 90
        0
280
             0
281
             0
  0
CLASS
  1
SORTENTSTABLE
  2
AcDbSortentsTable
  3
"AutoCAD"
 90
        0
280
             0
281
             0
  0
CLASS
  1
LAYER_INDEX
  2
AcDbLayerIndex
  3
"Acad"
 90
        0
280
             0
281
             0
  0
CLASS
  1
SPATIAL_INDEX
  2
AcDbSpatialIndex
  3
"Acad"
 90
        0
280
             0
281
             0
  0
CLASS
  1
OBJECT_PTR
  2
CAseDLPNTableRecord
  3
"ASE-LPNTableRecord"
 90
        1
280
             0
281
             0
  0
CLASS
  1
LAYOUT
  2
AcDbLayout
  3
"AutoCAD 2000"
 90
        1
280
             0
281
             0
  0
CLASS
  1
PLOTSETTINGS
  2
AcDbPlotSettings
  3
"AutoCAD 2000"
 90
        1
280
             0
281
             0
  0
CLASS
  1
ACDBDICTIONARYWDFLT
  2
AcDbDictionaryWithDefault
  3
"AutoCAD 2000"
 90
        1
280
             0
281
             0
  0
CLASS
  1
ACDBPLACEHOLDER
  2
AcDbPlaceHolder
  3
"AutoCAD 2000"
 90
        1
280
             0
281
             0
  0
CLASS
  1
VBA_PROJECT
  2
AcDbVbaProject
  3
"acadvba"
 90
        1
280
             0
281
             0
  0
CLASS
  1
WIPEOUT
  2
AcDbWipeout
  3
WipeOut|AutoCAD Express Tool|expresstools@autodesk.com
 90
      127
280
             0
281
             1
  0
CLASS
  1
WIPEOUTVARIABLES
  2
AcDbWipeoutVariables
  3
WipeOut|AutoCAD Express Tool|expresstools@autodesk.com
 90
        0
280
             0
281
             0
  0
CLASS
  1
RTEXT
  2
RText
  3
RText|AutoCAD Express Tool|expresstools@autodesk.com
 90
        0
280
             0
281
             1
  0
CLASS
  1
ARCALIGNEDTEXT
  2
AcDbArcAlignedText
  3
ATEXT|AutoCAD Express Tool|expresstools@autodesk.com
 90
        0
280
             0
281
             1
  0
ENDSEC
  0
SECTION
  2
TABLES
  0
TABLE
  2
VPORT
  5
7
100
AcDbSymbolTable
 70
             1
  0
VPORT
  5
15
100
AcDbSymbolTableRecord
100
AcDbViewportTableRecord
  2
*ACTIVE
 70
             0
 10
0.0
 20
0.0
 11
1.0
 21
1.0
 12
-46.23786029775299
 22
7.6442800227661
 13
0.0
 23
0.0
 14
1.0
 24
1.0
 15
0.0
 25
0.0
 16
0.0
 26
0.0
 36
1.0
 17
0.0
 27
0.0
 37
0.0
 40
149.13046869808656
 41
1.60267857142857
 42
50.0
 43
0.0
 44
0.0
 50
0.0
 51
0.0
 71
             0
 72
           100
 73
             1
 74
             1
 75
             0
 76
             0
 77
             0
 78
             0
  0
ENDTAB
  0
TABLE
  2
LTYPE
  5
4
100
AcDbSymbolTable
 70
            10
  0
LTYPE
  5
11
100
AcDbSymbolTableRecord
100
AcDbLinetypeTableRecord
  2
BYBLOCK
 70
            64
  3

 72
            65
 73
             0
 40
0.0
  0
LTYPE
  5
12
100
AcDbSymbolTableRecord
100
AcDbLinetypeTableRecord
  2
BYLAYER
 70
            64
  3

 72
            65
 73
             0
 40
0.0
  0
LTYPE
  5
13
100
AcDbSymbolTableRecord
100
AcDbLinetypeTableRecord
  2
CONTINUOUS
 70
            64
  3
Solid line
 72
            65
 73
             0
 40
0.0
  0
LTYPE
  5
1D
100
AcDbSymbolTableRecord
100
AcDbLinetypeTableRecord
  2
DASHED
 70
            64
  3
Dashed
 72
            65
 73
             2
 40
15.0
 49
12.0
 74
             0
 49
-3.0
 74
             0
  0
LTYPE
  5
1E
100
AcDbSymbolTableRecord
100
AcDbLinetypeTableRecord
  2
DOTTED
 70
            64
  3
Dotted
 72
            65
 73
             2
 40
3.5
 49
0.5
 74
             0
 49
-3.0
 74
             0
  0
LTYPE
  5
1F
100
AcDbSymbolTableRecord
100
AcDbLinetypeTableRecord
  2
DOT_CENTER
 70
            64
  3
Dot_Center
 72
            65
 73
             4
 40
2.0
 49
1.25
 74
             0
 49
-0.25
 74
             0
 49
0.25
 74
             0
 49
-0.25
 74
             0
  0
LTYPE
  5
20
100
AcDbSymbolTableRecord
100
AcDbLinetypeTableRecord
  2
LONG_DASHED
 70
            64
  3
Long_Dashed
 72
            65
 73
             2
 40
2.0
 49
1.5
 74
             0
 49
-0.5
 74
             0
  0
LTYPE
  5
21
100
AcDbSymbolTableRecord
100
AcDbLinetypeTableRecord
  2
DASH_CENTER
 70
            64
  3
Dash_Center
 72
            65
 73
             4
 40
36.0
 49
24.0
 74
             0
 49
-3.0
 74
             0
 49
6.0
 74
             0
 49
-3.0
 74
             0
  0
LTYPE
  5
22
100
AcDbSymbolTableRecord
100
AcDbLinetypeTableRecord
  2
PHANTOM
 70
            64
  3
Phantom
 72
            65
 73
             6
 40
2.5
 49
1.25
 74
             0
 49
-0.25
 74
             0
 49
0.25
 74
             0
 49
-0.25
 74
             0
 49
0.25
 74
             0
 49
-0.25
 74
             0
  0
LTYPE
  5
23
100
AcDbSymbolTableRecord
100
AcDbLinetypeTableRecord
  2
CENTER_DASH_DASH
 70
            64
  3
Center_Dash_Dash
 72
            65
 73
             6
 40
22.0
 49
12.0
 74
             0
 49
-3.0
 74
             0
 49
0.5
 74
             0
 49
-3.0
 74
             0
 49
0.5
 74
             0
 49
-3.0
 74
             0
  0
ENDTAB
  0
TABLE
  2
LAYER
  5
2
100
AcDbSymbolTable
 70
             2
  0
LAYER
  5
14
100
AcDbSymbolTableRecord
100
AcDbLayerTableRecord
  2
0
 70
             0
 62
             7
  6
CONTINUOUS
  0
LAYER
  5
24
100
AcDbSymbolTableRecord
100
AcDbLayerTableRecord
  2
1
 70
             0
 62
             7
  6
CONTINUOUS
  0
ENDTAB
  0
TABLE
  2
STYLE
  5
3
100
AcDbSymbolTable
 70
             2
  0
STYLE
  5
17
100
AcDbSymbolTableRecord
100
AcDbTextStyleTableRecord
  2
STANDARD
 70
             0
 40
0.0
 41
1.0
 50
0.0
 71
             0
 42
0.0
  3
txt
  4

  0
STYLE
  5
7B
100
AcDbSymbolTableRecord
100
AcDbTextStyleTableRecord
  2
CONVERTER_1
 70
             0
 40
0.0
 41
0.9
 50
0.0
 71
             0
 42
0.0
  3
txt.shx
  4

  0
ENDTAB
  0
TABLE
  2
VIEW
  5
5
100
AcDbSymbolTable
 70
             0
  0
ENDTAB
  0
TABLE
  2
UCS
  5
6
100
AcDbSymbolTable
 70
             0
  0
ENDTAB
  0
TABLE
  2
APPID
  5
8
100
AcDbSymbolTable
 70
             1
  0
APPID
  5
16
100
AcDbSymbolTableRecord
100
AcDbRegAppTableRecord
  2
ACAD
 70
             0
  0
ENDTAB
  0
TABLE
  2
DIMSTYLE
  5
9
100
AcDbSymbolTable
 70
            12
  0
DIMSTYLE
105
18
100
AcDbSymbolTableRecord
100
AcDbDimStyleTableRecord
  2
STANDARD
 70
             0
  3

  4

  5

  6

  7

 40
1.0
 41
0.18
 42
0.0625
 43
0.38
 44
0.18
 45
0.0
 46
0.0
 47
0.0
 48
0.0
 71
             0
 72
             0
 73
             1
 74
             1
 75
             0
 76
             0
 77
             0
 78
             0
140
0.18
141
0.09
142
0.0
143
25.4
144
1.0
145
0.0
146
1.0
147
0.09
170
             0
171
             2
172
             0
173
             0
174
             0
175
             0
176
             0
177
             0
178
             0
270
             2
271
             4
272
             4
273
             2
274
             2
275
             0
280
             0
281
             0
282
             0
283
             1
284
             0
285
             0
286
             0
287
             0
288
             0
340
17
  0
DIMSTYLE
105
7E
100
AcDbSymbolTableRecord
100
AcDbDimStyleTableRecord
  2
ME10_DIM_0
 70
             0
  3
°
  4

  5

  6

  7

 40
1.0
 41
3.5
 42
0.0
 43
0.38
 44
2.0
 45
0.0
 46
0.0
 47
0.0
 48
0.0
 71
             0
 72
             0
 73
             0
 74
             0
 75
             0
 76
             0
 77
             0
 78
             8
140
3.5
141
0.09
142
0.0
143
25.4
144
1.0
145
0.0
146
1.0
147
0.625
170
             0
171
             2
172
             0
173
             1
174
             0
175
             0
176
             2
177
             2
178
             2
270
             2
271
             2
272
             4
273
             2
274
             2
275
             0
280
             0
281
             0
282
             0
283
             1
284
             0
285
             0
286
             0
287
             0
288
             0
340
17
  0
DIMSTYLE
105
8A
100
AcDbSymbolTableRecord
100
AcDbDimStyleTableRecord
  2
ME10_DIM_1
 70
             0
  3
Ø<>
  4

  5

  6

  7

 40
1.0
 41
3.5
 42
0.0
 43
0.38
 44
2.0
 45
0.0
 46
0.0
 47
0.0
 48
0.0
 71
             0
 72
             0
 73
             0
 74
             0
 75
             0
 76
             0
 77
             0
 78
             8
140
3.5
141
0.09
142
0.0
143
25.4
144
1.0
145
0.0
146
1.0
147
0.625
170
             0
171
             2
172
             0
173
             1
174
             0
175
             0
176
             2
177
             2
178
             2
270
             2
271
             2
272
             4
273
             2
274
             2
275
             0
280
             0
281
             0
282
             0
283
             1
284
             0
285
             0
286
             0
287
             0
288
             0
340
17
  0
DIMSTYLE
105
96
100
AcDbSymbolTableRecord
100
AcDbDimStyleTableRecord
  2
ME10_DIM_2
 70
             0
  3
Ø<>
  4

  5

  6

  7

 40
1.0
 41
3.5
 42
0.0
 43
0.38
 44
2.0
 45
0.0
 46
0.0
 47
0.0
 48
0.0
 71
             0
 72
             0
 73
             0
 74
             0
 75
             0
 76
             0
 77
             0
 78
             8
140
3.5
141
0.09
142
0.0
143
25.4
144
1.0
145
0.0
146
1.0
147
0.625
170
             0
171
             2
172
             0
173
             1
174
             0
175
             0
176
             2
177
             2
178
             2
270
             2
271
             2
272
             4
273
             2
274
             2
275
             0
280
             0
281
             0
282
             0
283
             1
284
             0
285
             0
286
             0
287
             0
288
             0
340
17
  0
DIMSTYLE
105
A2
100
AcDbSymbolTableRecord
100
AcDbDimStyleTableRecord
  2
ME10_DIM_3
 70
             0
  3
Ø<>
  4

  5

  6

  7

 40
1.0
 41
3.5
 42
0.0
 43
0.38
 44
2.0
 45
0.0
 46
0.0
 47
0.0
 48
0.0
 71
             0
 72
             0
 73
             0
 74
             0
 75
             0
 76
             0
 77
             0
 78
             8
140
3.5
141
0.09
142
0.0
143
25.4
144
1.0
145
0.0
146
1.0
147
0.625
170
             0
171
             2
172
             0
173
             1
174
             0
175
             0
176
             2
177
             2
178
             2
270
             2
271
             2
272
             4
273
             2
274
             2
275
             0
280
             0
281
             0
282
             0
283
             1
284
             0
285
             0
286
             0
287
             0
288
             0
340
17
  0
DIMSTYLE
105
AE
100
AcDbSymbolTableRecord
100
AcDbDimStyleTableRecord
  2
ME10_DIM_4
 70
             0
  3

  4

  5

  6

  7

 40
1.0
 41
3.5
 42
0.0
 43
0.38
 44
2.0
 45
0.0
 46
0.0
 47
0.0
 48
0.0
 71
             0
 72
             0
 73
             0
 74
             0
 75
             0
 76
             0
 77
             0
 78
             8
140
3.5
141
0.09
142
0.0
143
25.4
144
1.0
145
0.0
146
1.0
147
0.625
170
             0
171
             2
172
             0
173
             1
174
             0
175
             0
176
             2
177
             2
178
             2
270
             2
271
             2
272
             4
273
             2
274
             2
275
             0
280
             0
281
             0
282
             0
283
             1
284
             0
285
             0
286
             0
287
             0
288
             0
340
17
  0
DIMSTYLE
105
BB
100
AcDbSymbolTableRecord
100
AcDbDimStyleTableRecord
  2
ME10_DIM_5
 70
             0
  3
°
  4

  5

  6

  7

 40
1.0
 41
3.5
 42
0.0
 43
0.38
 44
2.0
 45
0.0
 46
0.0
 47
0.0
 48
0.0
 71
             0
 72
             0
 73
             0
 74
             0
 75
             0
 76
             0
 77
             0
 78
             8
140
3.5
141
0.09
142
0.0
143
25.4
144
1.0
145
0.0
146
1.0
147
0.625
170
             0
171
             2
172
             0
173
             1
174
             0
175
             0
176
             2
177
             2
178
             2
270
             2
271
             2
272
             4
273
             2
274
             2
275
             0
280
             0
281
             0
282
             0
283
             1
284
             0
285
             0
286
             0
287
             0
288
             0
340
17
  0
DIMSTYLE
105
C7
100
AcDbSymbolTableRecord
100
AcDbDimStyleTableRecord
  2
ME10_DIM_6
 70
             0
  3

  4

  5

  6

  7

 40
1.0
 41
3.5
 42
0.0
 43
0.38
 44
2.0
 45
0.0
 46
0.0
 47
0.0
 48
0.0
 71
             0
 72
             0
 73
             0
 74
             0
 75
             0
 76
             0
 77
             0
 78
             8
140
3.5
141
0.09
142
0.0
143
25.4
144
1.0
145
0.0
146
1.0
147
0.625
170
             0
171
             2
172
             0
173
             1
174
             0
175
             0
176
             2
177
             2
178
             2
270
             2
271
             2
272
             4
273
             2
274
             2
275
             0
280
             0
281
             0
282
             0
283
             1
284
             0
285
             0
286
             0
287
             0
288
             0
340
17
  0
DIMSTYLE
105
D3
100
AcDbSymbolTableRecord
100
AcDbDimStyleTableRecord
  2
ME10_DIM_7
 70
             0
  3

  4

  5

  6

  7

 40
1.0
 41
3.5
 42
0.0
 43
0.38
 44
2.0
 45
0.0
 46
0.0
 47
0.0
 48
0.0
 71
             0
 72
             0
 73
             0
 74
             0
 75
             0
 76
             0
 77
             0
 78
             8
140
3.5
141
0.09
142
0.0
143
25.4
144
1.0
145
0.0
146
1.0
147
0.625
170
             0
171
             2
172
             0
173
             1
174
             0
175
             0
176
             2
177
             2
178
             2
270
             2
271
             2
272
             4
273
             2
274
             2
275
             0
280
             0
281
             0
282
             0
283
             1
284
             0
285
             0
286
             0
287
             0
288
             0
340
17
  0
DIMSTYLE
105
E0
100
AcDbSymbolTableRecord
100
AcDbDimStyleTableRecord
  2
ME10_DIM_8
 70
             0
  3

  4

  5

  6

  7

 40
1.0
 41
3.5
 42
0.0
 43
0.38
 44
2.0
 45
0.0
 46
0.0
 47
9.0
 48
0.0
 71
             1
 72
             0
 73
             0
 74
             0
 75
             0
 76
             0
 77
             0
 78
             8
140
3.5
141
0.09
142
0.0
143
25.4
144
1.0
145
0.0
146
0.6
147
0.625
170
             0
171
             2
172
             0
173
             1
174
             0
175
             0
176
             2
177
             2
178
             2
270
             2
271
             2
272
             0
273
             2
274
             2
275
             0
280
             0
281
             0
282
             0
283
             1
284
             0
285
             0
286
             0
287
             0
288
             0
340
17
  0
DIMSTYLE
105
EC
100
AcDbSymbolTableRecord
100
AcDbDimStyleTableRecord
  2
ME10_DIM_9
 70
             0
  3

  4

  5

  6

  7

 40
1.0
 41
3.5
 42
0.0
 43
0.38
 44
2.0
 45
0.0
 46
0.0
 47
0.2
 48
0.0
 71
             1
 72
             0
 73
             0
 74
             0
 75
             0
 76
             0
 77
             0
 78
             8
140
3.5
141
0.09
142
0.0
143
25.4
144
1.0
145
0.0
146
0.6
147
0.625
170
             0
171
             2
172
             0
173
             1
174
             0
175
             0
176
             2
177
             2
178
             2
270
             2
271
             2
272
             1
273
             2
274
             2
275
             0
280
             0
281
             0
282
             0
283
             1
284
             0
285
             0
286
             0
287
             0
288
             0
340
17
  0
DIMSTYLE
105
F8
100
AcDbSymbolTableRecord
100
AcDbDimStyleTableRecord
  2
ME10_DIM_10
 70
             0
  3

  4

  5

  6

  7

 40
1.0
 41
3.5
 42
0.0
 43
0.38
 44
2.0
 45
0.0
 46
0.0
 47
7.0
 48
0.0
 71
             1
 72
             0
 73
             0
 74
             0
 75
             0
 76
             0
 77
             0
 78
             8
140
3.5
141
0.09
142
0.0
143
25.4
144
1.0
145
0.0
146
0.6
147
0.625
170
             0
171
             2
172
             0
173
             1
174
             0
175
             0
176
             2
177
             2
178
             2
270
             2
271
             2
272
             0
273
             2
274
             2
275
             0
280
             0
281
             0
282
             0
283
             1
284
             0
285
             0
286
             0
287
             0
288
             0
340
17
  0
ENDTAB
  0
TABLE
  2
BLOCK_RECORD
  5
1
100
AcDbSymbolTable
 70
            12
  0
BLOCK_RECORD
  5
A
100
AcDbSymbolTableRecord
100
AcDbBlockTableRecord
  2
*MODEL_SPACE
  0
BLOCK_RECORD
  5
B
100
AcDbSymbolTableRecord
100
AcDbBlockTableRecord
  2
*PAPER_SPACE
  0
BLOCK_RECORD
  5
72
100
AcDbSymbolTableRecord
100
AcDbBlockTableRecord
  2
*D0
  0
BLOCK_RECORD
  5
80
100
AcDbSymbolTableRecord
100
AcDbBlockTableRecord
  2
*D1
  0
BLOCK_RECORD
  5
8C
100
AcDbSymbolTableRecord
100
AcDbBlockTableRecord
  2
*D2
  0
BLOCK_RECORD
  5
98
100
AcDbSymbolTableRecord
100
AcDbBlockTableRecord
  2
*D3
  0
BLOCK_RECORD
  5
A4
100
AcDbSymbolTableRecord
100
AcDbBlockTableRecord
  2
*D4
  0
BLOCK_RECORD
  5
B0
100
AcDbSymbolTableRecord
100
AcDbBlockTableRecord
  2
*D5
  0
BLOCK_RECORD
  5
BD
100
AcDbSymbolTableRecord
100
AcDbBlockTableRecord
  2
*D6
  0
BLOCK_RECORD
  5
C9
100
AcDbSymbolTableRecord
100
AcDbBlockTableRecord
  2
*D7
  0
BLOCK_RECORD
  5
D5
100
AcDbSymbolTableRecord
100
AcDbBlockTableRecord
  2
*D8
  0
BLOCK_RECORD
  5
E2
100
AcDbSymbolTableRecord
100
AcDbBlockTableRecord
  2
*D9
  0
BLOCK_RECORD
  5
EE
100
AcDbSymbolTableRecord
100
AcDbBlockTableRecord
  2
*D10
  0
BLOCK_RECORD
  5
FA
100
AcDbSymbolTableRecord
100
AcDbBlockTableRecord
  2
*D11
  0
ENDTAB
  0
ENDSEC
  0
SECTION
  2
BLOCKS
  0
BLOCK
  5
D
100
AcDbEntity
  8
0
100
AcDbBlockBegin
  2
*MODEL_SPACE
 70
             0
 10
0.0
 20
0.0
 30
0.0
  3
*MODEL_SPACE
  1

  0
ENDBLK
  5
E
100
AcDbEntity
  8
0
100
AcDbBlockEnd
  0
BLOCK
  5
F
100
AcDbEntity
 67
             1
  8
0
100
AcDbBlockBegin
  2
*PAPER_SPACE
 70
             0
 10
0.0
 20
0.0
 30
0.0
  3
*PAPER_SPACE
  1

  0
ENDBLK
  5
10
100
AcDbEntity
 67
             1
  8
0
100
AcDbBlockEnd
  0
BLOCK
  5
73
100
AcDbEntity
  8
0
100
AcDbBlockBegin
  2
*D0
 70
             1
 10
0.0
 20
0.0
 30
0.0
  3
*D0
  1

  0
LINE
  5
74
100
AcDbEntity
  8
0
  6
CONTINUOUS
 62
             2
100
AcDbLine
 10
7.0
 20
60.2245304496301
 11
13.6787421741605
 21
60.2245304496301
  0
LINE
  5
75
100
AcDbEntity
  8
0
  6
CONTINUOUS
 62
             2
100
AcDbLine
 10
5.0
 20
60.2245304496301
 11
7.0
 21
60.2245304496301
  0
LINE
  5
76
100
AcDbEntity
  8
0
  6
CONTINUOUS
 62
             2
100
AcDbLine
 10
-2.0
 20
60.2245304496301
 11
5.0
 21
60.2245304496301
  0
LINE
  5
77
100
AcDbEntity
  8
0
  6
CONTINUOUS
 62
             2
100
AcDbLine
 10
7.0
 20
49.5
 11
7.0
 21
62.2245304496301
  0
LINE
  5
78
100
AcDbEntity
  8
0
  6
CONTINUOUS
 62
             2
100
AcDbLine
 10
5.0
 20
47.5
 11
5.0
 21
62.2245304496301
  0
SOLID
  5
79
100
AcDbEntity
  8
0
 62
             2
100
AcDbTrace
 10
1.5
 20
59.76374670807422
 11
1.5
 21
60.68531419118599
 12
5.0
 22
60.2245304496301
 13
5.0
 23
60.2245304496301
  0
SOLID
  5
7A
100
AcDbEntity
  8
0
 62
             2
100
AcDbTrace
 10
10.5
 20
60.68531419118599
 11
10.5
 21
59.76374670807422
 12
7.0
 22
60.2245304496301
 13
7.0
 23
60.2245304496301
  0
MTEXT
  5
7C
100
AcDbEntity
  8
0
 62
             2
100
AcDbMText
 10
15.6787421741605
 20
58.4745304496301
 30
0.0
 40
3.5
 41
0.0
 71
             7
 72
             1
  1
\C2;2x45\C2;°
  7
CONVERTER_1
 11
0.99999999999706
 21
0.00000242406841
 31
0.0
  0
ENDBLK
  5
7D
100
AcDbEntity
  8
0
100
AcDbBlockEnd
  0
BLOCK
  5
81
100
AcDbEntity
  8
0
100
AcDbBlockBegin
  2
*D1
 70
             1
 10
0.0
 20
0.0
 30
0.0
  3
*D1
  1

  0
LINE
  5
82
100
AcDbEntity
  8
0
  6
CONTINUOUS
 62
             2
100
AcDbLine
 10
-26.5557768924303
 20
6.725
 11
-26.5557768924303
 21
45.0
  0
LINE
  5
83
100
AcDbEntity
  8
0
  6
CONTINUOUS
 62
             2
100
AcDbLine
 10
-26.5557768924303
 20
-45.0
 11
-26.5557768924303
 21
-6.725
  0
LINE
  5
84
100
AcDbEntity
  8
0
  6
CONTINUOUS
 62
             2
100
AcDbLine
 10
3.0
 20
45.0
 11
-28.5557768924303
 21
45.0
  0
LINE
  5
85
100
AcDbEntity
  8
0
  6
CONTINUOUS
 62
             2
100
AcDbLine
 10
3.0
 20
-45.0
 11
-28.5557768924303
 21
-45.0
  0
SOLID
  5
86
100
AcDbEntity
  8
0
 62
             2
100
AcDbTrace
 10
-26.09499315087442
 20
41.5
 11
-27.01656063398619
 21
41.5
 12
-26.5557768924303
 22
45.0
 13
-26.5557768924303
 23
45.0
  0
SOLID
  5
87
100
AcDbEntity
  8
0
 62
             2
100
AcDbTrace
 10
-27.01656063398619
 20
-41.5
 11
-26.09499315087441
 21
-41.5
 12
-26.5557768924303
 22
-45.0
 13
-26.5557768924303
 23
-45.0
  0
MTEXT
  5
88
100
AcDbEntity
  8
0
 62
             2
100
AcDbMText
 10
-24.8057768924303
 20
-3.395
 30
0.0
 40
3.5
 41
0.0
 71
             7
 72
             1
  1
\C2;Ø\C2;90
  7
CONVERTER_1
 11
0.0
 21
1.0
 31
0.0
  0
ENDBLK
  5
89
100
AcDbEntity
  8
0
100
AcDbBlockEnd
  0
BLOCK
  5
8D
100
AcDbEntity
  8
0
100
AcDbBlockBegin
  2
*D2
 70
             1
 10
0.0
 20
0.0
 30
0.0
  3
*D2
  1

  0
LINE
  5
8E
100
AcDbEntity
  8
0
  6
CONTINUOUS
 62
             2
100
AcDbLine
 10
57.1180990324417
 20
6.725
 11
57.1180990324417
 21
49.5
  0
LINE
  5
8F
100
AcDbEntity
  8
0
  6
CONTINUOUS
 62
             2
100
AcDbLine
 10
57.1180990324417
 20
-49.5
 11
57.1180990324417
 21
-6.725
  0
LINE
  5
90
100
AcDbEntity
  8
0
  6
CONTINUOUS
 62
             2
100
AcDbLine
 10
7.0
 20
49.5
 11
59.1180990324417
 21
49.5
  0
LINE
  5
91
100
AcDbEntity
  8
0
  6
CONTINUOUS
 62
             2
100
AcDbLine
 10
33.0
 20
-49.5
 11
59.1180990324417
 21
-49.5
  0
SOLID
  5
92
100
AcDbEntity
  8
0
 62
             2
100
AcDbTrace
 10
56.65731529088581
 20
-46.0
 11
57.57888277399758
 21
-46.0
 12
57.1180990324417
 22
-49.5
 13
57.1180990324417
 23
-49.5
  0
SOLID
  5
93
100
AcDbEntity
  8
0
 62
             2
100
AcDbTrace
 10
57.57888277399758
 20
46.0
 11
56.65731529088581
 21
46.0
 12
57.1180990324417
 22
49.5
 13
57.1180990324417
 23
49.5
  0
MTEXT
  5
94
100
AcDbEntity
  8
0
 62
             2
100
AcDbMText
 10
58.8680990324417
 20
-3.395
 30
0.0
 40
3.5
 41
0.0
 71
             7
 72
             1
  1
\C2;Ø\C2;99
  7
CONVERTER_1
 11
0.0
 21
1.0
 31
0.0
  0
ENDBLK
  5
95
100
AcDbEntity
  8
0
100
AcDbBlockEnd
  0
BLOCK
  5
99
100
AcDbEntity
  8
0
100
AcDbBlockBegin
  2
*D3
 70
             1
 10
0.0
 20
0.0
 30
0.0
  3
*D3
  1

  0
LINE
  5
9A
100
AcDbEntity
  8
0
  6
CONTINUOUS
 62
             2
100
AcDbLine
 10
-15.6058622652248
 20
6.725
 11
-15.6058622652248
 21
25.0
  0
LINE
  5
9B
100
AcDbEntity
  8
0
  6
CONTINUOUS
 62
             2
100
AcDbLine
 10
-15.6058622652248
 20
-25.0
 11
-15.6058622652248
 21
-6.725
  0
LINE
  5
9C
100
AcDbEntity
  8
0
  6
CONTINUOUS
 62
             2
100
AcDbLine
 10
0.0
 20
25.0
 11
-17.6058622652248
 21
25.0
  0
LINE
  5
9D
100
AcDbEntity
  8
0
  6
CONTINUOUS
 62
             2
100
AcDbLine
 10
0.0
 20
-25.0
 11
-17.6058622652248
 21
-25.0
  0
SOLID
  5
9E
100
AcDbEntity
  8
0
 62
             2
100
AcDbTrace
 10
-15.14507852366892
 20
21.5
 11
-16.06664600678069
 21
21.5
 12
-15.6058622652248
 22
25.0
 13
-15.6058622652248
 23
25.0
  0
SOLID
  5
9F
100
AcDbEntity
  8
0
 62
             2
100
AcDbTrace
 10
-16.06664600678069
 20
-21.5
 11
-15.14507852366891
 21
-21.5
 12
-15.6058622652248
 22
-25.0
 13
-15.6058622652248
 23
-25.0
  0
MTEXT
  5
A0
100
AcDbEntity
  8
0
 62
             2
100
AcDbMText
 10
-13.8558622652248
 20
-3.395
 30
0.0
 40
3.5
 41
0.0
 71
             7
 72
             1
  1
\C2;Ø\C2;50
  7
CONVERTER_1
 11
0.0
 21
1.0
 31
0.0
  0
ENDBLK
  5
A1
100
AcDbEntity
  8
0
100
AcDbBlockEnd
  0
BLOCK
  5
A5
100
AcDbEntity
  8
0
100
AcDbBlockBegin
  2
*D4
 70
             1
 10
0.0
 20
0.0
 30
0.0
  3
*D4
  1

  0
LINE
  5
A6
100
AcDbEntity
  8
0
  6
CONTINUOUS
 62
             2
100
AcDbLine
 10
24.1415054069437
 20
72.4140580535003
 11
40.0
 21
72.4140580535003
  0
LINE
  5
A7
100
AcDbEntity
  8
0
  6
CONTINUOUS
 62
             2
100
AcDbLine
 10
0.0
 20
72.4140580535003
 11
14.8915054069437
 21
72.4140580535003
  0
LINE
  5
A8
100
AcDbEntity
  8
0
  6
CONTINUOUS
 62
             2
100
AcDbLine
 10
40.0
 20
18.3
 11
40.0
 21
74.4140580535003
  0
LINE
  5
A9
100
AcDbEntity
  8
0
  6
CONTINUOUS
 62
             2
100
AcDbLine
 10
0.0
 20
25.0
 11
0.0
 21
74.4140580535003
  0
SOLID
  5
AA
100
AcDbEntity
  8
0
 62
             2
100
AcDbTrace
 10
3.5
 20
72.87484179505618
 11
3.5
 21
71.95327431194441
 12
0.0
 22
72.4140580535003
 13
0.0
 23
72.4140580535003
  0
SOLID
  5
AB
100
AcDbEntity
  8
0
 62
             2
100
AcDbTrace
 10
36.5
 20
71.95327431194441
 11
36.5
 21
72.87484179505618
 12
40.0
 22
72.4140580535003
 13
40.0
 23
72.4140580535003
  0
MTEXT
  5
AC
100
AcDbEntity
  8
0
 62
             2
100
AcDbMText
 10
16.8915054069437
 20
70.6640580535003
 30
0.0
 40
3.5
 41
0.0
 71
             7
 72
             1
  1
40
  7
CONVERTER_1
 11
0.99999999999706
 21
0.00000242406841
 31
0.0
  0
ENDBLK
  5
AD
100
AcDbEntity
  8
0
100
AcDbBlockEnd
  0
BLOCK
  5
B1
100
AcDbEntity
  8
0
100
AcDbBlockBegin
  2
*D5
 70
             1
 10
0.0
 20
0.0
 30
0.0
  3
*D5
  1

  0
LINE
  5
B2
100
AcDbEntity
  8
0
  6
CONTINUOUS
 62
             2
100
AcDbLine
 10
3.0
 20
7.12777461582243
 11
9.9599032441662
 21
7.12777461582243
  0
LINE
  5
B3
100
AcDbEntity
  8
0
  6
CONTINUOUS
 62
             2
100
AcDbLine
 10
0.0
 20
7.12777461582243
 11
3.0
 21
7.12777461582243
  0
LINE
  5
B4
100
AcDbEntity
  8
0
  6
CONTINUOUS
 62
             2
100
AcDbLine
 10
-7.0
 20
7.12777461582243
 11
0.0
 21
7.12777461582243
  0
LINE
  5
B5
100
AcDbEntity
  8
0
  6
CONTINUOUS
 62
             2
100
AcDbLine
 10
3.0
 20
15.3
 11
3.0
 21
5.12777461582243
  0
LINE
  5
B6
100
AcDbEntity
  8
0
  6
CONTINUOUS
 62
             2
100
AcDbLine
 10
0.0
 20
18.3
 11
0.0
 21
5.12777461582243
  0
SOLID
  5
B7
100
AcDbEntity
  8
0
 62
             2
100
AcDbTrace
 10
-3.5
 20
6.66699087426655
 11
-3.5
 21
7.58855835737832
 12
0.0
 22
7.12777461582243
 13
0.0
 23
7.12777461582243
  0
SOLID
  5
B8
100
AcDbEntity
  8
0
 62
             2
100
AcDbTrace
 10
6.5
 20
7.58855835737832
 11
6.5
 21
6.66699087426654
 12
3.0
 22
7.12777461582243
 13
3.0
 23
7.12777461582243
  0
MTEXT
  5
B9
100
AcDbEntity
  8
0
 62
             2
100
AcDbMText
 10
11.9599032441662
 20
5.37777461582243
 30
0.0
 40
3.5
 41
0.0
 71
             7
 72
             1
  1
\C2;3x45\C2;°
  7
CONVERTER_1
 11
0.99999999999706
 21
0.00000242406841
 31
0.0
  0
ENDBLK
  5
BA
100
AcDbEntity
  8
0
100
AcDbBlockEnd
  0
BLOCK
  5
BE
100
AcDbEntity
  8
0
100
AcDbBlockBegin
  2
*D6
 70
             1
 10
0.0
 20
0.0
 30
0.0
  3
*D6
  1

  0
LINE
  5
BF
100
AcDbEntity
  8
0
  6
CONTINUOUS
 62
             2
100
AcDbLine
 10
5.0
 20
-57.1254980079681
 11
12.0
 21
-57.1254980079681
  0
LINE
  5
C0
100
AcDbEntity
  8
0
  6
CONTINUOUS
 62
             2
100
AcDbLine
 10
0.0
 20
-57.1254980079681
 11
-7.0
 21
-57.1254980079681
  0
LINE
  5
C1
100
AcDbEntity
  8
0
  6
CONTINUOUS
 62
             2
100
AcDbLine
 10
5.0
 20
-29.0
 11
5.0
 21
-59.1254980079681
  0
LINE
  5
C2
100
AcDbEntity
  8
0
  6
CONTINUOUS
 62
             2
100
AcDbLine
 10
0.0
 20
-25.0
 11
0.0
 21
-59.1254980079681
  0
SOLID
  5
C3
100
AcDbEntity
  8
0
 62
             2
100
AcDbTrace
 10
8.5
 20
-56.66471426641221
 11
8.5
 21
-57.58628174952398
 12
5.0
 22
-57.1254980079681
 13
5.0
 23
-57.1254980079681
  0
SOLID
  5
C4
100
AcDbEntity
  8
0
 62
             2
100
AcDbTrace
 10
-3.5
 20
-57.58628174952398
 11
-3.5
 21
-56.66471426641221
 12
0.0
 22
-57.1254980079681
 13
0.0
 23
-57.1254980079681
  0
MTEXT
  5
C5
100
AcDbEntity
  8
0
 62
             2
100
AcDbMText
 10
1.95
 20
-58.8754980079681
 30
0.0
 40
3.5
 41
0.0
 71
             7
 72
             1
  1
5
  7
CONVERTER_1
 11
0.99999999999706
 21
0.00000242406841
 31
0.0
  0
ENDBLK
  5
C6
100
AcDbEntity
  8
0
100
AcDbBlockEnd
  0
BLOCK
  5
CA
100
AcDbEntity
  8
0
100
AcDbBlockBegin
  2
*D7
 70
             1
 10
0.0
 20
0.0
 30
0.0
  3
*D7
  1

  0
LINE
  5
CB
100
AcDbEntity
  8
0
  6
CONTINUOUS
 62
             2
100
AcDbLine
 10
24.1415054069437
 20
-57.1254980079681
 11
35.0
 21
-57.1254980079681
  0
LINE
  5
CC
100
AcDbEntity
  8
0
  6
CONTINUOUS
 62
             2
100
AcDbLine
 10
5.0
 20
-57.1254980079681
 11
14.8915054069437
 21
-57.1254980079681
  0
LINE
  5
CD
100
AcDbEntity
  8
0
  6
CONTINUOUS
 62
             2
100
AcDbLine
 10
35.0
 20
-47.5
 11
35.0
 21
-59.1254980079681
  0
LINE
  5
CE
100
AcDbEntity
  8
0
  6
CONTINUOUS
 62
             2
100
AcDbLine
 10
5.0
 20
-47.5
 11
5.0
 21
-59.1254980079681
  0
SOLID
  5
CF
100
AcDbEntity
  8
0
 62
             2
100
AcDbTrace
 10
8.5
 20
-56.66471426641221
 11
8.5
 21
-57.58628174952398
 12
5.0
 22
-57.1254980079681
 13
5.0
 23
-57.1254980079681
  0
SOLID
  5
D0
100
AcDbEntity
  8
0
 62
             2
100
AcDbTrace
 10
31.5
 20
-57.58628174952398
 11
31.5
 21
-56.66471426641221
 12
35.0
 22
-57.1254980079681
 13
35.0
 23
-57.1254980079681
  0
MTEXT
  5
D1
100
AcDbEntity
  8
0
 62
             2
100
AcDbMText
 10
16.8915054069437
 20
-58.8754980079681
 30
0.0
 40
3.5
 41
0.0
 71
             7
 72
             1
  1
30
  7
CONVERTER_1
 11
0.99999999999706
 21
0.00000242406841
 31
0.0
  0
ENDBLK
  5
D2
100
AcDbEntity
  8
0
100
AcDbBlockEnd
  0
BLOCK
  5
D6
100
AcDbEntity
  8
0
100
AcDbBlockBegin
  2
*D8
 70
             1
 10
0.0
 20
0.0
 30
0.0
  3
*D8
  1

  0
LINE
  5
D7
100
AcDbEntity
  8
0
  6
CONTINUOUS
 62
             2
100
AcDbLine
 10
-111.0
 20
30.0239842559296
 11
-104.0
 21
30.0239842559296
  0
LINE
  5
D8
100
AcDbEntity
  8
0
  6
CONTINUOUS
 62
             2
100
AcDbLine
 10
-104.0
 20
30.0239842559296
 11
-96.0
 21
30.0239842559296
  0
LINE
  5
D9
100
AcDbEntity
  8
0
  6
CONTINUOUS
 62
             2
100
AcDbLine
 10
-96.0
 20
30.0239842559296
 11
-90.3829621746324
 21
30.0239842559296
  0
LINE
  5
DA
100
AcDbEntity
  8
0
  6
CONTINUOUS
 62
             2
100
AcDbLine
 10
-104.0
 20
17.85768416627244
 11
-104.0
 21
32.02398425592961
  0
LINE
  5
DB
100
AcDbEntity
  8
0
  6
CONTINUOUS
 62
             2
100
AcDbLine
 10
-96.0
 20
17.85768416627244
 11
-96.0
 21
32.02398425592961
  0
SOLID
  5
DC
100
AcDbEntity
  8
0
 62
             2
100
AcDbTrace
 10
-107.5
 20
29.56320051437372
 11
-107.5
 21
30.48476799748549
 12
-104.0
 22
30.0239842559296
 13
-104.0
 23
30.0239842559296
  0
SOLID
  5
DD
100
AcDbEntity
  8
0
 62
             2
100
AcDbTrace
 10
-92.5
 20
30.48476799748549
 11
-92.5
 21
29.56320051437372
 12
-96.0
 22
30.0239842559296
 13
-96.0
 23
30.0239842559296
  0
MTEXT
  5
DE
100
AcDbEntity
  8
0
 62
             2
100
AcDbMText
 10
-88.3829621746324
 20
28.2739842559296
 30
0.0
 40
3.5
 41
0.0
 71
             7
 72
             1
  1
\C2;8\C2;\H2.100000;\SJS9^ ;
  7
CONVERTER_1
 11
0.99999999999706
 21
0.00000242406841
 31
0.0
  0
ENDBLK
  5
DF
100
AcDbEntity
  8
0
100
AcDbBlockEnd
  0
BLOCK
  5
E3
100
AcDbEntity
  8
0
100
AcDbBlockBegin
  2
*D9
 70
             1
 10
0.0
 20
0.0
 30
0.0
  3
*D9
  1

  0
LINE
  5
E4
100
AcDbEntity
  8
0
  6
CONTINUOUS
 62
             2
100
AcDbLine
 10
-66.5731757868689
 20
-15.35584075548737
 11
-66.5731757868689
 21
-22.35584075548737
  0
LINE
  5
E5
100
AcDbEntity
  8
0
  6
CONTINUOUS
 62
             2
100
AcDbLine
 10
-66.5731757868689
 20
18.3
 11
-66.5731757868689
 21
25.3
  0
LINE
  5
E6
100
AcDbEntity
  8
0
  6
CONTINUOUS
 62
             2
100
AcDbLine
 10
-100.04225249936766
 20
-15.35584075548737
 11
-64.5731757868689
 21
-15.35584075548737
  0
LINE
  5
E7
100
AcDbEntity
  8
0
  6
CONTINUOUS
 62
             2
100
AcDbLine
 10
-96.0
 20
18.3
 11
-64.5731757868689
 21
18.3
  0
SOLID
  5
E8
100
AcDbEntity
  8
0
 62
             2
100
AcDbTrace
 10
-66.11239204531302
 20
-18.85584075548737
 11
-67.03395952842479
 21
-18.85584075548737
 12
-66.5731757868689
 22
-15.35584075548737
 13
-66.5731757868689
 23
-15.35584075548737
  0
SOLID
  5
E9
100
AcDbEntity
  8
0
 62
             2
100
AcDbTrace
 10
-67.03395952842479
 20
21.8
 11
-66.11239204531302
 21
21.8
 12
-66.5731757868689
 22
18.3
 13
-66.5731757868689
 23
18.3
  0
MTEXT
  5
EA
100
AcDbEntity
  8
0
 62
             2
100
AcDbMText
 10
-64.8231757868689
 20
-8.85036012338687
 30
0.0
 40
3.5
 41
0.0
 71
             7
 72
             1
  1
\C2;33.3\C2;\H2.100000;\S+0.2^ ;
  7
CONVERTER_1
 11
0.0
 21
1.0
 31
0.0
  0
ENDBLK
  5
EB
100
AcDbEntity
  8
0
100
AcDbBlockEnd
  0
BLOCK
  5
EF
100
AcDbEntity
  8
0
100
AcDbBlockBegin
  2
*D10
 70
             1
 10
0.0
 20
0.0
 30
0.0
  3
*D10
  1

  0
LINE
  5
F0
100
AcDbEntity
  8
0
  6
CONTINUOUS
 62
             2
100
AcDbLine
 10
-115.35551695030229
 20
-33.2237812029329
 11
-107.316317856284
 21
-33.2237812029329
  0
LINE
  5
F1
100
AcDbEntity
  8
0
  6
CONTINUOUS
 62
             2
100
AcDbLine
 10
-92.95631785628399
 20
-33.2237812029329
 11
-84.64448727718387
 21
-33.2237812029329
  0
LINE
  5
F2
100
AcDbEntity
  8
0
  6
CONTINUOUS
 62
             2
100
AcDbLine
 10
-115.35551695030229
 20
-0.10830406533739
 11
-115.35551695030229
 21
-35.2237812029329
  0
LINE
  5
F3
100
AcDbEntity
  8
0
  6
CONTINUOUS
 62
             2
100
AcDbLine
 10
-84.64448727718387
 20
-0.10890179530951
 11
-84.64448727718387
 21
-35.2237812029329
  0
SOLID
  5
F4
100
AcDbEntity
  8
0
 62
             2
100
AcDbTrace
 10
-111.85551695030229
 20
-32.76299746137701
 11
-111.85551695030229
 21
-33.68456494448878
 12
-115.35551695030229
 22
-33.2237812029329
 13
-115.35551695030229
 23
-33.2237812029329
  0
SOLID
  5
F5
100
AcDbEntity
  8
0
 62
             2
100
AcDbTrace
 10
-88.14448727718387
 20
-33.68456494448878
 11
-88.14448727718387
 21
-32.76299746137701
 12
-84.64448727718387
 22
-33.2237812029329
 13
-84.64448727718387
 23
-33.2237812029329
  0
MTEXT
  5
F6
100
AcDbEntity
  8
0
 62
             2
100
AcDbMText
 10
-105.316317856284
 20
-34.9737812029329
 30
0.0
 40
3.5
 41
0.0
 71
             7
 72
             1
  1
\C2;30\C2;\H2.100000;\SH7^ ;
  7
CONVERTER_1
 11
0.99999999999706
 21
0.00000242406841
 31
0.0
  0
ENDBLK
  5
F7
100
AcDbEntity
  8
0
100
AcDbBlockEnd
  0
BLOCK
  5
FB
100
AcDbEntity
  8
0
100
AcDbBlockBegin
  2
*D11
 70
             1
 10
0.0
 20
0.0
 30
0.0
  3
*D11
  1

  0
LINE
  5
FC
100
AcDbEntity
  8
0
  6
CONTINUOUS
 62
             2
100
AcDbLine
 10
40.60057776932661
 20
-31.37063543778936
 11
36.76172542151254
 21
-25.68486396790467
  0
SOLID
  5
FD
100
AcDbEntity
  8
0
 62
             2
100
AcDbTrace
 10
39.10210587384797
 20
-28.32776786226187
 11
38.33832548153016
 21
-28.8434481297143
 12
36.76172542151254
 22
-25.68486396790467
 13
36.76172542151254
 23
-25.68486396790467
  0
MTEXT
  5
FE
100
AcDbEntity
  8
0
 62
             2
100
AcDbMText
 10
41.01356934187569
 20
-35.10973131259699
 30
0.0
 40
3.5
 41
0.0
 71
             7
 72
             1
  1
\C2;R\C2;4
  7
CONVERTER_1
 11
0.55956864462186
 21
-0.82878400802383
 31
0.0
  0
ENDBLK
  5
FF
100
AcDbEntity
  8
0
100
AcDbBlockEnd
  0
ENDSEC
  0
SECTION
  2
ENTITIES
  0
HATCH
  5
102
100
AcDbEntity
  8
1
  6
CONTINUOUS
 62
           202
100
AcDbHatch
 10
0.0
 20
0.0
 30
0.0
210
0.0
220
0.0
230
1.0
  2
USER
 70
             0
 71
             0
 91
        1
 92
        1
 93
       10
 72
             1
 10
5.0
 20
40.5
 11
5.0
 21
29.0
 72
             2
 10
1.0
 20
29.0
 40
4.0
 50
0.0
 51
90.0
 73
             0
 72
             1
 10
1.0
 20
25.0
 11
0.0
 21
25.0
 72
             1
 10
0.0
 20
25.0
 11
0.0
 21
18.300000000000001
 72
             1
 10
0.0
 20
18.300000000000001
 11
40.0
 21
18.300000000000001
 72
             1
 10
40.0
 20
18.300000000000001
 11
40.0
 21
25.0
 72
             1
 10
40.0
 20
25.0
 11
39.0
 21
25.0
 72
             2
 10
39.0
 20
29.0
 40
4.0
 50
90.0
 51
-180.0
 73
             0
 72
             1
 10
35.0
 20
29.0
 11
35.0
 21
40.5
 72
             1
 10
35.0
 20
40.5
 11
5.0
 21
40.5
 97
        0
 75
             1
 76
             0
 52
45.0
 41
2.0
 77
             0
 78
             1
 53
45.0
 43
0.0
 44
0.0
 45
-1.4142135623730949
 46
1.4142135623730951
 79
             0
 98
        1
 10
0.0
 20
0.0
  0
HATCH
  5
101
100
AcDbEntity
  8
1
  6
CONTINUOUS
 62
           202
100
AcDbHatch
 10
0.0
 20
0.0
 30
0.0
210
0.0
220
0.0
230
1.0
  2
USER
 70
             0
 71
             0
 91
        1
 92
        1
 93
       12
 72
             1
 10
5.0
 20
-40.5
 11
35.0
 21
-40.5
 72
             1
 10
35.0
 20
-40.5
 11
35.0
 21
-29.0
 72
             2
 10
39.0
 20
-29.0
 40
4.0
 50
-180.0
 51
-90.0
 73
             0
 72
             1
 10
39.0
 20
-25.0
 11
40.0
 21
-25.0
 72
             1
 10
40.0
 20
-25.0
 11
40.0
 21
-18.0
 72
             1
 10
40.0
 20
-18.0
 11
37.0
 21
-15.0
 72
             1
 10
37.0
 20
-15.0
 11
3.0
 21
-15.0
 72
             1
 10
3.0
 20
-15.0
 11
0.0
 21
-18.0
 72
             1
 10
0.0
 20
-18.0
 11
0.0
 21
-25.0
 72
             1
 10
0.0
 20
-25.0
 11
1.0
 21
-25.0
 72
             2
 10
1.0
 20
-29.0
 40
4.0
 50
-90.0
 51
0.0
 73
             0
 72
             1
 10
5.0
 20
-29.0
 11
5.0
 21
-40.5
 97
        0
 75
             1
 76
             0
 52
45.0
 41
2.0
 77
             0
 78
             1
 53
45.0
 43
0.0
 44
0.0
 45
-1.4142135623730949
 46
1.4142135623730951
 79
             0
 98
        1
 10
0.0
 20
0.0
  0
DIMENSION
  5
F9
100
AcDbEntity
  8
1
100
AcDbDimension
  2
*D10
 10
-115.35551695030229
 20
-33.2237812029329
 11
-100.13631785628399
 21
-33.2237812029329
 31
0.0
 53
0.00013888888889
  1
30
  3
ME10_DIM_10
100
AcDbAlignedDimension
 13
-84.64448727718387
 23
-0.1089017953095
 14
-115.3555169503023
 24
-0.10830406533739
100
AcDbRotatedDimension
  0
DIMENSION
  5
ED
100
AcDbEntity
  8
1
100
AcDbDimension
  2
*D9
 10
-66.5731757868689
 20
-15.35584075548737
 11
-66.5731757868689
 21
-0.45036012338687
 31
0.0
 53
90.0
  1
33.3
  3
ME10_DIM_9
100
AcDbAlignedDimension
 13
-96.0
 23
18.3
 14
-100.04225249936771
 24
-15.35584075548737
 50
90.0
100
AcDbRotatedDimension
  0
DIMENSION
  5
E1
100
AcDbEntity
  8
1
100
AcDbDimension
  2
*D8
 10
-104.0
 20
30.0239842559296
 11
-84.04296217463239
 21
30.0239842559296
 31
0.0
 53
0.00013888888889
  1
<>
  3
ME10_DIM_8
100
AcDbAlignedDimension
 13
-96.0
 23
17.85768416627244
 14
-104.0
 24
17.85768416627244
100
AcDbRotatedDimension
  0
DIMENSION
  5
D4
100
AcDbEntity
  8
1
100
AcDbDimension
  2
*D7
 10
5.0
 20
-57.1254980079681
 11
19.5165054069437
 21
-57.1254980079681
 31
0.0
 70
             1
 53
0.00013888888889
  1
<>
  3
ME10_DIM_7
100
AcDbAlignedDimension
 13
35.0
 23
-47.5
 14
5.0
 24
-47.5
  0
DIMENSION
  5
C8
100
AcDbEntity
  8
1
100
AcDbDimension
  2
*D6
 10
5.0
 20
-57.1254980079681
 11
3.0
 21
-57.1254980079681
 31
0.0
 53
0.00013888888889
  1
<>
  3
ME10_DIM_6
100
AcDbAlignedDimension
 13
0.0
 23
-25.0
 14
5.0
 24
-29.0
100
AcDbRotatedDimension
  0
DIMENSION
  5
BC
100
AcDbEntity
  8
1
100
AcDbDimension
  2
*D5
 10
0.0
 20
7.12777461582243
 11
19.3099032441662
 21
7.12777461582243
 31
0.0
 53
0.00013888888889
  1
3x45
  3
ME10_DIM_5
100
AcDbAlignedDimension
 13
3.0
 23
15.3
 14
0.0
 24
18.3
100
AcDbRotatedDimension
  0
DIMENSION
  5
AF
100
AcDbEntity
  8
1
100
AcDbDimension
  2
*D4
 10
0.0
 20
72.4140580535003
 11
19.5165054069437
 21
72.4140580535003
 31
0.0
 53
0.00013888888889
  1
<>
  3
ME10_DIM_4
100
AcDbAlignedDimension
 13
40.0
 23
18.3
 14
0.0
 24
25.0
100
AcDbRotatedDimension
  0
DIMENSION
  5
A3
100
AcDbEntity
  8
1
100
AcDbDimension
  2
*D3
 10
-15.6058622652248
 20
25.0
 11
-15.6058622652248
 21
0.0
 31
0.0
 53
90.0
  1
<>
  3
ME10_DIM_3
100
AcDbAlignedDimension
 13
0.0
 23
-25.0
 14
0.0
 24
25.0
 50
90.0
100
AcDbRotatedDimension
  0
DIMENSION
  5
97
100
AcDbEntity
  8
1
100
AcDbDimension
  2
*D2
 10
57.1180990324417
 20
-49.5
 11
57.1180990324417
 21
0.0
 31
0.0
 53
90.0
  1
<>
  3
ME10_DIM_2
100
AcDbAlignedDimension
 13
7.0
 23
49.5
 14
33.0
 24
-49.5
 50
90.0
100
AcDbRotatedDimension
  0
DIMENSION
  5
8B
100
AcDbEntity
  8
1
100
AcDbDimension
  2
*D1
 10
-26.5557768924303
 20
45.0
 11
-26.5557768924303
 21
0.0
 31
0.0
 53
90.0
  1
<>
  3
ME10_DIM_1
100
AcDbAlignedDimension
 13
3.0
 23
-45.0
 14
3.0
 24
45.0
 50
90.0
100
AcDbRotatedDimension
  0
DIMENSION
  5
7F
100
AcDbEntity
  8
1
100
AcDbDimension
  2
*D0
 10
5.0
 20
60.2245304496301
 11
23.0287421741605
 21
60.2245304496301
 31
0.0
 53
0.00013888888889
  1
2x45
  3
ME10_DIM_0
100
AcDbAlignedDimension
 13
7.0
 23
49.5
 14
5.0
 24
47.5
100
AcDbRotatedDimension
  0
ARC
  5
71
100
AcDbEntity
  8
1
  6
CONTINUOUS
 62
             7
100
AcDbCircle
 10
1.0
 20
29.0
 40
4.0
100
AcDbArc
 50
-90.0
 51
0.0
  0
ARC
  5
70
100
AcDbEntity
  8
1
  6
CONTINUOUS
 62
             7
100
AcDbCircle
 10
39.0
 20
29.0
 40
4.0
100
AcDbArc
 50
180.0
 51
-90.0
  0
ARC
  5
6F
100
AcDbEntity
  8
1
  6
CONTINUOUS
 62
             7
100
AcDbCircle
 10
39.0
 20
-29.0
 40
4.0
100
AcDbArc
 50
90.0
 51
180.0
  0
ARC
  5
6E
100
AcDbEntity
  8
1
  6
CONTINUOUS
 62
             7
100
AcDbCircle
 10
1.0
 20
-29.0
 40
4.0
100
AcDbArc
 50
0.0
 51
90.0
  0
CIRCLE
  5
6A
100
AcDbEntity
  8
1
  6
CONTINUOUS
 62
             7
100
AcDbCircle
 10
-100.0
 20
0.0
 40
25.01846554982659
  0
CIRCLE
  5
69
100
AcDbEntity
  8
1
  6
CONTINUOUS
 62
             7
100
AcDbCircle
 10
-100.0
 20
0.0
 40
49.59381962794765
  0
ARC
  5
68
100
AcDbEntity
  8
1
  6
CONTINUOUS
 62
             7
100
AcDbCircle
 10
-100.0
 20
0.0
 40
15.35589888549641
100
AcDbArc
 50
-90.15765231071642
 51
-0.40633671810894
  0
ARC
  5
67
100
AcDbEntity
  8
1
  6
CONTINUOUS
 62
             7
100
AcDbCircle
 10
-100.0
 20
0.0
 40
15.3558988854964
100
AcDbArc
 50
105.09891445290421
 51
-179.59589358188759
  0
ARC
  5
66
100
AcDbEntity
  8
1
  6
CONTINUOUS
 62
             7
100
AcDbCircle
 10
-100.0
 20
0.0
 40
15.35589888549641
100
AcDbArc
 50
-179.59589358188759
 51
-90.15765231071642
  0
ARC
  5
65
100
AcDbEntity
  8
1
  6
CONTINUOUS
 62
             7
100
AcDbCircle
 10
-100.0
 20
0.0
 40
18.30018808051812
100
AcDbArc
 50
102.625466429073
 51
77.374533570927
  0
ARC
  5
64
100
AcDbEntity
  8
1
  6
CONTINUOUS
 62
             7
100
AcDbCircle
 10
-100.0
 20
0.0
 40
15.3558988854964
100
AcDbArc
 50
-0.40633671810894
 51
74.9010855470958
  0
ARC
  5
63
100
AcDbEntity
  8
1
  6
DOT_CENTER
 62
             7
100
AcDbCircle
 10
-100.0
 20
0.0
 40
45.0
100
AcDbArc
 50
180.0
 51
90.0
  0
ARC
  5
62
100
AcDbEntity
  8
1
  6
DOT_CENTER
 62
             7
100
AcDbCircle
 10
-100.0
 20
0.0
 40
45.0
100
AcDbArc
 50
90.0
 51
180.0
  0
LINE
  5
61
100
AcDbEntity
  8
1
  6
DASH_CENTER
 62
             2
100
AcDbLine
 10
-100.0
 20
51.59381962794765
 11
-100.0
 21
-51.59381962794765
  0
LINE
  5
60
100
AcDbEntity
  8
1
  6
DASH_CENTER
 62
             2
100
AcDbLine
 10
-48.40618037205235
 20
0.0
 11
-151.59381962794771
 21
0.0
  0
LINE
  5
5F
100
AcDbEntity
  8
1
  6
CONTINUOUS
 62
             7
100
AcDbLine
 10
-96.0
 20
17.85768416627244
 11
-96.0
 21
14.82577588464056
  0
LINE
  5
5E
100
AcDbEntity
  8
1
  6
CONTINUOUS
 62
             7
100
AcDbLine
 10
-104.0
 20
17.85768416627244
 11
-104.0
 21
18.3
  0
LINE
  5
5D
100
AcDbEntity
  8
1
  6
CONTINUOUS
 62
             7
100
AcDbLine
 10
-96.0
 20
18.3
 11
-96.0
 21
17.85768416627244
  0
LINE
  5
5C
100
AcDbEntity
  8
1
  6
CONTINUOUS
 62
             7
100
AcDbLine
 10
-104.0
 20
18.3
 11
-96.0
 21
18.3
  0
LINE
  5
5B
100
AcDbEntity
  8
1
  6
CONTINUOUS
 62
             7
100
AcDbLine
 10
-104.0
 20
14.82577588464056
 11
-104.0
 21
17.85768416627244
  0
LINE
  5
5A
100
AcDbEntity
  8
1
  6
CONTINUOUS
 62
             7
100
AcDbLine
 10
0.0
 20
25.0
 11
1.0
 21
25.0
  0
LINE
  5
59
100
AcDbEntity
  8
1
  6
CONTINUOUS
 62
             7
100
AcDbLine
 10
5.0
 20
29.0
 11
5.0
 21
40.5
  0
LINE
  5
58
100
AcDbEntity
  8
1
  6
CONTINUOUS
 62
             7
100
AcDbLine
 10
35.0
 20
45.0
 11
35.0
 21
40.5
  0
LINE
  5
57
100
AcDbEntity
  8
1
  6
CONTINUOUS
 62
             7
100
AcDbLine
 10
39.0
 20
25.0
 11
40.0
 21
25.0
  0
LINE
  5
56
100
AcDbEntity
  8
1
  6
CONTINUOUS
 62
             7
100
AcDbLine
 10
40.0
 20
25.0
 11
40.0
 21
18.3
  0
LINE
  5
55
100
AcDbEntity
  8
1
  6
CONTINUOUS
 62
             7
100
AcDbLine
 10
40.0
 20
-25.0
 11
39.0
 21
-25.0
  0
LINE
  5
54
100
AcDbEntity
  8
1
  6
CONTINUOUS
 62
             7
100
AcDbLine
 10
35.0
 20
-29.0
 11
35.0
 21
-40.5
  0
LINE
  5
53
100
AcDbEntity
  8
1
  6
CONTINUOUS
 62
             7
100
AcDbLine
 10
5.0
 20
-45.0
 11
5.0
 21
-40.5
  0
LINE
  5
52
100
AcDbEntity
  8
1
  6
CONTINUOUS
 62
             7
100
AcDbLine
 10
1.0
 20
-25.0
 11
0.0
 21
-25.0
  0
LINE
  5
51
100
AcDbEntity
  8
1
  6
CONTINUOUS
 62
             7
100
AcDbLine
 10
0.0
 20
-25.0
 11
0.0
 21
-18.0
  0
LINE
  5
50
100
AcDbEntity
  8
1
  6
CONTINUOUS
 62
             7
100
AcDbLine
 10
0.0
 20
18.3
 11
40.0
 21
18.3
  0
LINE
  5
4F
100
AcDbEntity
  8
1
  6
CONTINUOUS
 62
             7
100
AcDbLine
 10
0.0
 20
18.3
 11
0.0
 21
25.0
  0
LINE
  5
4E
100
AcDbEntity
  8
1
  6
CONTINUOUS
 62
             7
100
AcDbLine
 10
40.0
 20
18.3
 11
40.0
 21
3.81603585657371
  0
LINE
  5
4D
100
AcDbEntity
  8
1
  6
CONTINUOUS
 62
             7
100
AcDbLine
 10
3.0
 20
15.3
 11
3.0
 21
-15.0
  0
LINE
  5
4C
100
AcDbEntity
  8
1
  6
CONTINUOUS
 62
             7
100
AcDbLine
 10
3.0
 20
-15.0
 11
37.0
 21
-15.0
  0
LINE
  5
4B
100
AcDbEntity
  8
1
  6
CONTINUOUS
 62
             7
100
AcDbLine
 10
37.0
 20
-15.0
 11
37.0
 21
15.3
  0
LINE
  5
4A
100
AcDbEntity
  8
1
  6
CONTINUOUS
 62
             7
100
AcDbLine
 10
37.0
 20
15.3
 11
40.0
 21
18.3
  0
LINE
  5
49
100
AcDbEntity
  8
1
  6
CONTINUOUS
 62
             7
100
AcDbLine
 10
3.0
 20
15.3
 11
0.0
 21
18.3
  0
LINE
  5
48
100
AcDbEntity
  8
1
  6
CONTINUOUS
 62
             7
100
AcDbLine
 10
3.0
 20
15.3
 11
37.0
 21
15.3
  0
LINE
  5
47
100
AcDbEntity
  8
1
  6
CONTINUOUS
 62
             7
100
AcDbLine
 10
3.0
 20
-15.0
 11
0.0
 21
-18.0
  0
LINE
  5
46
100
AcDbEntity
  8
1
  6
CONTINUOUS
 62
             7
100
AcDbLine
 10
0.0
 20
-18.0
 11
0.0
 21
18.3
  0
LINE
  5
45
100
AcDbEntity
  8
1
  6
CONTINUOUS
 62
             7
100
AcDbLine
 10
37.0
 20
-15.0
 11
40.0
 21
-18.0
  0
LINE
  5
44
100
AcDbEntity
  8
1
  6
CONTINUOUS
 62
             7
100
AcDbLine
 10
40.0
 20
-18.0
 11
40.0
 21
-25.0
  0
LINE
  5
43
100
AcDbEntity
  8
1
  6
CONTINUOUS
 62
             7
100
AcDbLine
 10
7.0
 20
49.5
 11
33.0
 21
49.5
  0
LINE
  5
42
100
AcDbEntity
  8
1
  6
CONTINUOUS
 62
             7
100
AcDbLine
 10
7.0
 20
-49.5
 11
33.0
 21
-49.5
  0
LINE
  5
41
100
AcDbEntity
  8
1
  6
CONTINUOUS
 62
             7
100
AcDbLine
 10
35.0
 20
-47.5
 11
35.0
 21
-45.0
  0
LINE
  5
40
100
AcDbEntity
  8
1
  6
CONTINUOUS
 62
             7
100
AcDbLine
 10
5.0
 20
-47.5
 11
5.0
 21
-45.0
  0
LINE
  5
3F
100
AcDbEntity
  8
1
  6
CONTINUOUS
 62
             7
100
AcDbLine
 10
5.0
 20
45.0
 11
5.0
 21
47.5
  0
LINE
  5
3E
100
AcDbEntity
  8
1
  6
CONTINUOUS
 62
             7
100
AcDbLine
 10
35.0
 20
45.0
 11
35.0
 21
47.5
  0
LINE
  5
3D
100
AcDbEntity
  8
1
  6
CONTINUOUS
 62
             7
100
AcDbLine
 10
5.0
 20
40.5
 11
35.0
 21
40.5
  0
LINE
  5
3C
100
AcDbEntity
  8
1
  6
CONTINUOUS
 62
             7
100
AcDbLine
 10
5.0
 20
40.5
 11
5.0
 21
45.0
  0
LINE
  5
3B
100
AcDbEntity
  8
1
  6
CONTINUOUS
 62
             7
100
AcDbLine
 10
35.0
 20
40.5
 11
35.0
 21
29.0
  0
LINE
  5
3A
100
AcDbEntity
  8
1
  6
CONTINUOUS
 62
             7
100
AcDbLine
 10
5.0
 20
-40.5
 11
35.0
 21
-40.5
  0
LINE
  5
39
100
AcDbEntity
  8
1
  6
CONTINUOUS
 62
             7
100
AcDbLine
 10
5.0
 20
-40.5
 11
5.0
 21
-29.0
  0
LINE
  5
38
100
AcDbEntity
  8
1
  6
CONTINUOUS
 62
             7
100
AcDbLine
 10
35.0
 20
-40.5
 11
35.0
 21
-45.0
  0
LINE
  5
37
100
AcDbEntity
  8
1
  6
DASH_CENTER
 62
             2
100
AcDbLine
 10
3.0
 20
45.0
 11
37.0
 21
45.0
  0
LINE
  5
36
100
AcDbEntity
  8
1
  6
DASH_CENTER
 62
             2
100
AcDbLine
 10
3.0
 20
-45.0
 11
37.0
 21
-45.0
  0
LINE
  5
35
100
AcDbEntity
  8
1
  6
DASH_CENTER
 62
             2
100
AcDbLine
 10
-3.0
 20
0.15
 11
43.0
 21
0.15
  0
LINE
  5
34
100
AcDbEntity
  8
1
  6
CONTINUOUS
 62
             7
100
AcDbLine
 10
5.0
 20
47.5
 11
7.0
 21
49.5
  0
LINE
  5
33
100
AcDbEntity
  8
1
  6
CONTINUOUS
 62
             7
100
AcDbLine
 10
35.0
 20
47.5
 11
33.0
 21
49.5
  0
LINE
  5
32
100
AcDbEntity
  8
1
  6
CONTINUOUS
 62
             7
100
AcDbLine
 10
33.0
 20
-49.5
 11
35.0
 21
-47.5
  0
LINE
  5
31
100
AcDbEntity
  8
1
  6
CONTINUOUS
 62
             7
100
AcDbLine
 10
7.0
 20
-49.5
 11
5.0
 21
-47.5
  0
LINE
  5
30
100
AcDbEntity
  8
1
  6
CONTINUOUS
 62
             7
100
AcDbLine
 10
40.0
 20
-5.94591633466136
 11
40.0
 21
-18.0
  0
LINE
  5
2F
100
AcDbEntity
  8
1
  6
CONTINUOUS
 62
             7
100
AcDbLine
 10
40.0
 20
3.81603585657371
 11
40.0
 21
-5.94591633466136
  0
POINT
  5
2E
100
AcDbEntity
  8
1
 62
             7
100
AcDbPoint
 10
3.0
 20
-45.0
  0
POINT
  5
2D
100
AcDbEntity
  8
1
 62
             7
100
AcDbPoint
 10
3.0
 20
45.0
  0
POINT
  5
2C
100
AcDbEntity
  8
1
 62
             5
100
AcDbPoint
 10
-100.000295315
 20
-0.00003713570342
  0
POINT
  5
2B
100
AcDbEntity
  8
1
 62
           250
100
AcDbPoint
 10
-153.1982250999811
 20
-60.14229665818233
  0
POINT
  5
2A
100
AcDbEntity
  8
1
 62
           250
100
AcDbPoint
 10
-153.1982250999811
 20
75.43085670371454
  0
POINT
  5
29
100
AcDbEntity
  8
1
 62
           250
100
AcDbPoint
 10
60.72250450447513
 20
75.43085670371454
  0
POINT
  5
28
100
AcDbEntity
  8
1
 62
           250
100
AcDbPoint
 10
60.72250450447513
 20
-60.14229665818233
  0
INSERT
  5
100
100
AcDbEntity
  8
0
100
AcDbBlockReference
  2
*D11
 10
0.0
 20
0.0
  0
ENDSEC
  0
SECTION
  2
OBJECTS
  0
DICTIONARY
  5
19
100
AcDbDictionary
  3
ACAD_GROUP
350
1A
  3
ACAD_MLINESTYLE
350
1B
  0
DICTIONARY
  5
1A
102
{ACAD_REACTORS
330
19
102
}
100
AcDbDictionary
  0
DICTIONARY
  5
1B
102
{ACAD_REACTORS
330
19
102
}
100
AcDbDictionary
  3
STANDARD
350
1C
  0
MLINESTYLE
  5
1C
102
{ACAD_REACTORS
330
1B
102
}
100
AcDbMlineStyle
  2
STANDARD
 70
             0
  3

 62
             0
 51
90.0
 52
90.0
 71
             2
 49
0.5
 62
           256
  6
BYLAYER
 49
-0.5
 62
           256
  6
BYLAYER
  0
ENDSEC
  0
EOF
